<?xml version="1.0" standalone="no"?>
<!DOCTYPE svg PUBLIC "-//W3C//DTD SVG 1.1//EN" "http://www.w3.org/Graphics/SVG/1.1/DTD/svg11.dtd" >
<svg xmlns="http://www.w3.org/2000/svg">
<metadata></metadata>
<defs>
<font id="din_schablonierschriftregular" horiz-adv-x="921" >
<font-face units-per-em="2048" ascent="1638" descent="-410" />
<missing-glyph horiz-adv-x="720" />
<glyph horiz-adv-x="0" />
<glyph unicode="&#xd;" horiz-adv-x="720" />
<glyph unicode=" "  horiz-adv-x="720" />
<glyph unicode="&#x09;" horiz-adv-x="720" />
<glyph unicode="&#xa0;" horiz-adv-x="720" />
<glyph unicode="!" horiz-adv-x="499" d="M143 8v191q0 12 11 12h192q10 0 10 -10v-191q0 -10 -10 -10h-194q-8 0 -9 8zM143 403v1016q0 14 13 15h188q12 0 12 -11v-1017q0 -15 -14 -15h-184q-14 0 -15 12z" />
<glyph unicode="&#x26;" horiz-adv-x="1024" d="M0 414q0 109 37 184q29 57 104 137q10 12 21 0l86 -164q4 -6 0 -16q-47 -55 -47 -141q0 -96 78 -156q68 -53 147 -49l88 -184q4 -10 0 -13q-33 -12 -100 -12q-170 0 -292 122t-122 292zM106 1124q0 -72 35 -141l498 -983h225q8 0 2 12l-90 166q90 86 90 217q0 14 -12 15 h-190l-345 680q-8 16 -8 40q0 78 68 97v200q0 6 -10 7q-127 -14 -195 -96.5t-68 -213.5zM465 1018q-6 6 0 12q61 29 61 100q0 70 -45 89q-8 0 -8 6v200q0 8 10 9q119 -18 184.5 -101.5t65.5 -202.5q0 -90 -46 -169.5t-116 -122.5q-16 -8 -22 4z" />
<glyph unicode="," horiz-adv-x="532" d="M84 -182l80 182v199q0 6 6 6h190q8 0 9 -6v-199l-80 -182q-7 -11 -15 -11h-180q-14 0 -10 11z" />
<glyph unicode="-" horiz-adv-x="557" d="M82 578v174q0 14 12 14h367q14 0 14 -12v-179q0 -12 -10 -12h-371q-12 1 -12 15z" />
<glyph unicode="." horiz-adv-x="532" d="M164 8v191q0 6 6 6h190q8 0 9 -6v-191q-1 -8 -9 -8h-188q-8 0 -8 8z" />
<glyph unicode="0" d="M94 381q0 -156 88 -258q82 -96 215 -123q14 -2 15 8v189q0 12 -13 18q-94 49 -94 145v723q0 47 32 88t71 54q8 2 8 14v191q0 10 -13 10q-127 -12 -218 -126t-91 -251v-682zM508 6v195q0 10 10 14q43 14 74 61.5t31 90.5v712q0 104 -99 146q-12 4 -12 12v193q0 10 18 8 q125 -18 211 -119.5t86 -235.5v-702q0 -141 -84 -248.5t-219 -132.5q-16 0 -16 6z" />
<glyph unicode="1" d="M240 952v273l200 209h191q12 0 12 -11v-1409q0 -14 -14 -14h-185q-14 0 -14 12v1116l-176 -180q-14 -10 -14 4z" />
<glyph unicode="2" d="M102 14v185q0 6 9 22l483 770q27 55 27 90q0 113 -105 152v188q0 18 16 15q115 -20 197 -113q90 -102 90 -238q0 -109 -49 -188l-426 -688v-197q0 -14 -10 -14h-219q-12 0 -13 16zM109 1145q0 -12 10 -12h188q6 0 12 14q29 59 89 80q8 2 8 18v180q0 10 -10 11 q-100 -10 -191.5 -97.5t-105.5 -193.5zM438 14q0 -14 17 -14h348q12 0 12 12v185q0 10 -12 10h-354q-10 0 -11 -10v-183z" />
<glyph unicode="3" d="M86 289q0 12 10 12h191q12 0 12 -10q16 -29 27 -41q18 -20 51 -35q14 -6 14 -14v-193q0 -14 -14 -14q-119 27 -203 112q-59 61 -88 183zM88 1137q0 -10 10 -11h191q8 0 12 11q8 25 39 52.5t53 31.5v202q0 10 -8 11q-115 -18 -203 -111q-68 -72 -94 -186zM385 627v180 q0 12 14 12h45q61 0 105.5 50.5t44.5 115.5v96q0 55 -37 99q-33 37 -70 43v194q0 18 21 15q152 -31 231 -148q63 -96 64 -207v-102q0 -139 -107 -262q106 -121 107 -275v-100q0 -135 -107 -242q-92 -94 -190 -102q-20 0 -21 16v191q0 14 13 16q33 10 63.5 53t30.5 82v111 q0 57 -44 103t-99 46h-52q-12 0 -12 15z" />
<glyph unicode="4" d="M102 215v199l248 1011q2 8 12 9h203q6 0 2 -11l-239 -1020h80q14 0 14 -12v-178q0 -12 -10 -12h-297q-13 0 -13 14zM516 10v701q0 12 14 12h175q14 0 14 -12v-297h94q12 0 12 -8v-193q0 -6 -10 -6h-96v-193q0 -14 -12 -14h-179q-12 0 -12 10z" />
<glyph unicode="5" d="M109 625v794q0 14 12 15h176q12 0 12 -11v-798q0 -13 -12 -13h-176q-12 0 -12 13zM117 287q12 -98 96 -189q70 -76 203 -108q8 0 8 12v205q-29 8 -60.5 33.5t-35.5 50.5q0 6 -17 6h-184q-10 0 -10 -10zM412 717v196q0 6 8 9h51q154 0 256 -106.5t102 -252.5v-203 q0 -131 -75 -227q-80 -104 -217 -133q-14 -2 -15 12v199q102 45 103 149v195q0 70 -45.5 118t-106.5 48q-23 0 -53 -10q-8 -4 -8 6zM412 1245v172q0 14 12 15h287q14 0 14 -13v-176q0 -12 -10 -12h-291q-12 0 -12 14z" />
<glyph unicode="6" d="M104 360q0 -125 74 -221q80 -106 217 -137q14 -4 15 12v187q0 12 -15 14q-82 43 -82 135v729q0 63 46.5 106.5t105.5 43.5q104 0 147 -96h195q18 0 14 22q-29 111 -108 186q-102 98 -254 99q-143 0 -249 -109.5t-106 -263.5v-707zM406 713v202q0 6 8 9l47 4 q147 12 257.5 -98.5t110.5 -266.5v-201q0 -133 -81.5 -236t-221.5 -128q-14 -2 -14 12v197q113 41 113 155v199q0 72 -49.5 115t-110.5 43q-14 0 -51 -12q-8 -4 -8 6z" />
<glyph unicode="7" d="M106 0l498 1227v192q0 14 12 15h195q12 0 12 -11v-202l-491 -1221h-226zM106 1083v336q0 14 15 15h379q10 0 10 -11v-190q0 -12 -10 -12h-187v-140q0 -8 -10 -8h-186q-10 0 -11 10z" />
<glyph unicode="8" d="M96 1038q0 213 140 326q90 72 165 72q8 0 9 -11v-184q0 -12 -11 -16q-47 -29 -67 -60q-25 -41 -25 -118q0 -82 41 -127q9 -11 66 -48v-204q-102 -47 -103 -148v-180q0 -37 31 -76t66 -49q8 -2 8 -14v-191q0 -8 -10 -8q-143 23 -228 135q-78 104 -78 240v143 q0 74 32 146.5t75 103.5q-111 98 -111 268zM510 1237v188q0 10 12 11q133 -23 211 -121q86 -105 86 -273q0 -174 -104 -270q106 -106 106 -258v-172q0 -178 -141 -276q-94 -66 -158 -66l-8 8v197q0 8 10 10q39 18 69 63.5t30 92.5v135q0 117 -111 164v202q68 37 90 84 q14 35 14 105q0 119 -90 162q-16 0 -16 14z" />
<glyph unicode="9" d="M90 877v200q0 133 82 236.5t221 128.5q14 2 15 -12v-197q-113 -41 -113 -156v-198q0 -72 49.5 -115t110.5 -43q14 0 51 12q8 4 8 -6v-203q0 -6 -8 -8l-47 -4q-147 -12 -258 98.5t-111 266.5zM98 285q29 -111 109 -187q102 -98 254 -98q143 0 248.5 109.5t105.5 263.5v706 q0 125 -74 221q-80 106 -217 138q-14 4 -14 -13v-186q0 -12 14 -14q82 -43 82 -135v-730q0 -63 -46 -106t-105 -43q-104 0 -148 96h-194q-18 0 -15 -22z" />
<glyph unicode=":" horiz-adv-x="532" d="M164 8v191q0 6 6 6h190q8 0 9 -6v-191q-1 -8 -9 -8h-188q-8 0 -8 8zM164 823v191q0 6 6 6h190q8 0 9 -6v-191q-1 -8 -9 -8h-188q-8 0 -8 8z" />
<glyph unicode=";" horiz-adv-x="532" d="M84 -182l80 182v199q0 6 6 6h190q8 0 9 -6v-199l-80 -182q-7 -11 -15 -11h-180q-14 0 -10 11zM164 823v191q0 6 6 6h190q8 0 9 -6v-191q-1 -8 -9 -8h-188q-8 0 -8 8z" />
<glyph unicode="A" horiz-adv-x="1292" d="M123 12l346 1223q2 6 8 6t8 -6l99 -356l-103 -367h215q2 0 6 -4l54 -203q2 -8 -6 -8h-332l-78 -293q-2 -4 -8 -4h-195q-14 0 -14 12zM537 1417q-1 5 -1 8q0 8 7 9h198q4 0 9 -9l417 -1415q1 -3 1 -6q0 -4 -3 -4h-219q-2 2 -6 8z" />
<glyph unicode="B" horiz-adv-x="1103" d="M154 12v1407q0 14 12 15h188q12 0 13 -11v-1409q-1 -14 -15 -14h-184q-14 0 -14 12zM457 14v179q0 14 14 14h80q102 0 162 59q55 53 55 144q0 90 -59.5 148t-157.5 58h-80q-14 0 -14 15v172q0 14 14 14h82q94 0 158 64q57 59 57 143q0 90 -56.5 146.5t-158.5 56.5h-82 q-14 0 -14 12v182q0 12 12 13h88q188 0 301 -113t113 -295q0 -203 -131 -315q131 -131 131 -299q0 -193 -110.5 -302.5t-297.5 -109.5h-92q-14 0 -14 14z" />
<glyph unicode="C" horiz-adv-x="1110" d="M141 432v569q0 184 90.5 298t262.5 135q14 2 14 -13v-178q0 -10 -14 -14q-139 -33 -140 -217v-590q0 -186 140 -217q14 -4 14 -15v-178q0 -12 -11 -12h-3q-352 47 -353 432zM602 14v179q0 12 14 14q135 29 140 199q0 12 14 12h186q12 0 13 -12q0 -158 -86 -267 q-94 -117 -267 -137h-3q-11 0 -11 12zM602 1245v178q0 13 12 13h2q172 -20 267 -138q86 -109 86 -266q0 -12 -13 -12h-186q-14 0 -14 12q-5 170 -140 199q-14 2 -14 14z" />
<glyph unicode="D" horiz-adv-x="1089" d="M154 12v1407q0 14 12 15h188q12 0 13 -11v-1409q-1 -14 -15 -14h-184q-14 0 -14 12zM449 14v176q0 14 14 15h80q94 0 152.5 57t58.5 146l2 616q0 82 -54 139q-59 66 -159 66h-80q-14 0 -14 14v176q0 14 14 15h92q199 0 311 -123q100 -111 101 -283v-618q0 -188 -117 -299 t-295 -111h-92q-14 0 -14 14z" />
<glyph unicode="E" horiz-adv-x="1095" d="M154 12v1407q0 14 12 15h188q12 0 13 -11v-1409q-1 -14 -15 -14h-184q-14 0 -14 12zM457 14v174q0 14 12 15h489q14 0 15 -13v-178q0 -12 -10 -12h-494q-12 0 -12 14zM457 627v174q0 14 12 14h330q14 0 14 -12v-178q0 -12 -10 -13h-334q-12 1 -12 15zM457 1245v174 q0 14 12 15h489q14 0 15 -13v-178q0 -12 -10 -12h-494q-12 0 -12 14z" />
<glyph unicode="F" horiz-adv-x="1095" d="M154 12v1407q0 14 12 15h188q12 0 13 -11v-1409q-1 -14 -15 -14h-184q-14 0 -14 12zM457 627v174q0 14 12 14h330q14 0 14 -12v-178q0 -12 -10 -13h-334q-12 1 -12 15zM457 1245v174q0 14 12 15h489q14 0 15 -13v-178q0 -12 -10 -12h-494q-12 0 -12 14z" />
<glyph unicode="G" horiz-adv-x="1110" d="M141 432v569q0 184 90.5 298t262.5 135q14 2 14 -13v-178q0 -10 -14 -14q-139 -33 -140 -217v-590q0 -186 140 -217q14 -4 14 -15v-178q0 -12 -11 -12h-3q-352 47 -353 432zM555 623v170q0 12 12 12h391q10 0 11 -12v-387q0 -158 -86 -267q-94 -117 -267 -137h-3 q-11 0 -11 12v179q0 12 14 14q66 14 103 69.5t37 131.5v202h-189q-12 0 -12 13zM602 1245v178q0 13 12 13h2q172 -20 267 -138q86 -109 86 -266q0 -12 -13 -12h-186q-14 0 -14 12q-5 170 -140 199q-14 2 -14 14z" />
<glyph unicode="H" horiz-adv-x="1124" d="M154 12v1407q0 14 12 15h188q12 0 13 -11v-1409q-1 -14 -15 -14h-184q-14 0 -14 12zM449 623v174q0 14 12 14h194q14 0 15 -12v-178q0 -12 -11 -13h-198q-12 1 -12 15zM758 12v1407q0 14 12 15h188q12 0 13 -11v-1409q-1 -14 -15 -14h-184q-14 0 -14 12z" />
<glyph unicode="I" horiz-adv-x="520" d="M154 12v1407q0 14 12 15h188q12 0 13 -11v-1409q-1 -14 -15 -14h-184q-14 0 -14 12z" />
<glyph unicode="J" horiz-adv-x="710" d="M10 25q-1 1 -1 3t1 5l70 176q2 6 12 2q27 -10 72 -10q84 0 143.5 53t59.5 133v1032q0 14 12 15h188q12 0 13 -11v-1034q0 -172 -119 -280.5t-299 -108.5q-82 0 -152 25z" />
<glyph unicode="K" horiz-adv-x="1093" d="M154 12v1407q0 14 12 15h182q12 0 12 -11v-1409q0 -14 -14 -14h-178q-14 0 -14 12zM459 604v359l280 464q4 6 6 7h213q20 0 7 -23l-359 -594l365 -805q1 -3 1 -5q0 -7 -11 -7h-207q-4 2 -6 8l-269 596q-8 -10 -14 -10t-6 10z" />
<glyph unicode="L" horiz-adv-x="991" d="M154 12v1407q0 14 12 15h188q12 0 13 -11v-1214h487q14 0 14 -14v-181q0 -14 -14 -14h-686q-14 0 -14 12z" />
<glyph unicode="M" horiz-adv-x="1386" d="M154 12v1084q0 14 8 16q8 0 12 -10l188 -496v-592q0 -14 -14 -14h-180q-14 0 -14 12zM156 1417q-2 4 -2 7q0 7 10 8h203q8 0 12 -9l426 -1138l-6 -23q-5 -12 -11 -12h-194q-2 2 -6 8zM745 723l265 700q2 11 8 11h205q9 0 9 -7q0 -2 -1 -6l-367 -979q-6 -16 -12 0z M1022 14v592l188 496q4 10 13 10q8 -2 8 -16v-1084q0 -12 -14 -12h-181q-14 0 -14 14z" />
<glyph unicode="N" horiz-adv-x="1130" d="M156 12v1100q0 14 8 16q8 0 12 -10l180 -426v-676q0 -16 -14 -16h-172q-14 0 -14 12zM156 1419q-2 4 -2 7q0 7 10 8h203q8 0 12 -9l598 -1413q2 -3 2 -6q0 -6 -12 -6h-207q-4 2 -6 8zM772 741v676q0 17 14 17h172q14 0 15 -13v-1099q0 -14 -8 -17q-8 0 -13 10z" />
<glyph unicode="O" horiz-adv-x="1110" d="M141 432v569q0 184 90.5 298t262.5 135q14 2 14 -13v-178q0 -10 -14 -14q-139 -33 -140 -217v-590q0 -186 140 -217q14 -4 14 -15v-178q0 -12 -11 -12h-3q-352 47 -353 432zM602 14v179q0 10 14 14q139 31 140 217v590q-1 184 -140 217q-14 4 -14 14v178q0 13 12 13h2 q172 -20 262.5 -134t90.5 -298v-570q0 -385 -353 -432h-3q-11 0 -11 12z" />
<glyph unicode="P" horiz-adv-x="1112" d="M154 12v1407q0 14 12 15h188q12 0 13 -11v-1409q-1 -14 -15 -14h-184q-14 0 -14 12zM461 629v176q0 14 14 14h80q94 0 153.5 58.5t59.5 146.5q0 86 -57.5 145.5t-155.5 59.5h-80q-14 0 -14 14v176q0 14 14 15h92q176 0 291 -107q121 -113 121 -301q0 -186 -127 -303 q-119 -109 -285 -109h-92q-14 0 -14 15z" />
<glyph unicode="Q" horiz-adv-x="1187" d="M141 432v569q0 184 90.5 298t262.5 135h3q11 0 11 -13v-178q0 -10 -14 -14q-139 -33 -140 -217v-590q0 -186 140 -217q14 -4 14 -15v-178q0 -14 -14 -12q-352 47 -353 432zM602 8v178q0 12 14 15q41 8 60 22l-62 29q-12 4 -12 14v209q0 23 16 17l138 -80v600 q-1 184 -140 217v-4q-14 2 -14 14v178q0 13 12 13h2q172 -20 262.5 -134t90.5 -299v-569q0 -63 -17 -141l103 -56q10 -6 10 -14v-209q0 -20 -23 -6l-178 111q-47 -51 -118.5 -84t-129.5 -33h-3q-11 0 -11 12z" />
<glyph unicode="R" horiz-adv-x="1114" d="M154 12v1407q0 14 12 15h188q12 0 13 -11v-1409q-1 -14 -15 -14h-184q-14 0 -14 12zM461 618v177q0 14 14 14h80q92 0 152.5 63.5t60.5 151.5q0 86 -57.5 145.5t-155.5 59.5h-80q-14 0 -14 14v178q0 14 14 15h82q178 0 297 -105q125 -113 125 -299q0 -141 -72 -248 q-61 -92 -166 -139l238 -625q3 -6 3 -11q0 -9 -15 -9h-205q-6 0 -8 8l-203 596h-76q-14 0 -14 14z" />
<glyph unicode="S" horiz-adv-x="1071" d="M123 199q0 4 2 6l143 114q6 4 11 0q74 -94 190 -110q12 0 14 -16v-187q0 -6 -12 -6q-223 16 -346 193q-2 2 -2 6zM125 1028q0 193 133 311q106 94 219 95q14 0 15 -9v-188q0 -10 -13 -10q-47 -10 -90 -51q-59 -57 -59 -146q0 -96 69 -149q51 -41 164 -70 q160 -23 262 -113q123 -106 123 -284q0 -172 -121 -299q-111 -115 -235 -115q-10 0 -10 6v187q0 16 10 16q61 14 104 63q49 57 49 144q0 150 -223 198q-172 20 -280 127q-117 113 -117 287zM584 1245v182q0 7 12 7q223 -18 346 -189q3 -3 3 -6t-3 -6l-141 -119q-5 -2 -9 -2 t-6 2q-66 96 -188 115q-12 0 -14 16z" />
<glyph unicode="T" horiz-adv-x="968" d="M123 1241v178q0 14 12 15h699q12 0 12 -11v-180q0 -14 -15 -14h-241v-1215q-1 -14 -15 -14h-184q-14 0 -14 12v1217h-240q-14 0 -14 12z" />
<glyph unicode="U" horiz-adv-x="1105" d="M141 432v989q0 12 13 13h180q12 -1 12 -13v-999q0 -184 148 -217q14 -4 14 -15v-180q0 -12 -11 -12h-3q-172 23 -262.5 136.5t-90.5 297.5zM598 10v180q0 10 14 15q147 33 148 217v999q0 12 12 13h180q12 0 13 -13v-989q0 -184 -90.5 -298t-262.5 -136h-3q-11 0 -11 12z " />
<glyph unicode="V" horiz-adv-x="1112" d="M125 1423q-2 4 -2 7q0 4 4 4h205q2 -2 6 -9l328 -1409q6 -16 -7 -16h-202q-4 0 -8 8zM608 674l174 753q4 7 6 7h187q14 0 14 -13l-272 -1173q-2 -6 -8 -6t-9 6z" />
<glyph unicode="W" horiz-adv-x="1255" d="M70 1423q-2 4 -2 7q0 4 4 4h200q2 -2 7 -9l223 -1409q6 -16 -6 -16h-205q-4 0 -8 8zM446 946l76 481q4 7 6 7h189q14 0 14 -13l-172 -1071q0 -6 -8 -6t-8 6zM672 487l96 596q0 6 8 7q8 0 8 -7l172 -1071q0 -12 -14 -12h-188q-2 0 -6 6zM909 946l76 481q4 7 6 7h189 q14 0 14 -13l-172 -1071q0 -6 -8 -6t-8 6z" />
<glyph unicode="X" horiz-adv-x="1107" d="M125 1419q-2 4 -2 7q0 7 10 8h205q8 0 12 -9l635 -1413q1 -3 1 -5q0 -7 -11 -7h-207q-4 2 -6 8zM127 14l256 570q12 27 20 6l101 -230l-168 -344q-8 -16 -12 -16h-185q-13 0 -13 8q0 2 1 6zM610 1090l156 327q8 17 12 17h187q13 0 13 -8q0 -3 -1 -7l-250 -559 q-7 -15 -12 -15q-4 0 -8 9z" />
<glyph unicode="Y" horiz-adv-x="1107" d="M125 1419q-2 4 -2 7q0 7 10 8h201q8 0 12 -9l309 -895v-518q0 -12 -10 -12h-188q-6 0 -6 8v488zM604 973l164 444q6 17 12 17h191q14 0 14 -8q0 -3 -2 -7l-262 -729q-6 -15 -12 -15q-4 0 -9 9z" />
<glyph unicode="Z" horiz-adv-x="1099" d="M141 12v189l586 1032v188q0 14 12 15h205q12 0 12 -11v-192l-585 -1032v-187q-1 -14 -15 -14h-200q-14 0 -15 12zM141 1247v172q0 14 13 15h452q14 0 15 -13v-176q0 -12 -11 -12h-456q-13 0 -13 14zM471 14v172q0 14 12 15h461q14 0 14 -13v-176q0 -12 -10 -12h-465 q-12 0 -12 14z" />
<glyph unicode="&#xad;" horiz-adv-x="557" d="M82 578v174q0 14 12 14h367q14 0 14 -12v-179q0 -12 -10 -12h-371q-12 1 -12 15z" />
<glyph unicode="&#xc4;" horiz-adv-x="1292" d="M123 12l346 1223q2 6 8 6t8 -6l99 -356l-103 -367h215q2 0 6 -4l54 -203q2 -8 -6 -8h-332l-78 -293q-2 -4 -8 -4h-195q-14 0 -14 12zM344 1544v191q0 6 6 6h191q8 0 8 -6v-191q0 -8 -8 -8h-189q-8 0 -8 8zM537 1417q-4 16 6 17h198q4 0 9 -9l417 -1415q2 -10 -2 -10h-219 q-2 2 -6 8zM707 1544v191q0 6 6 6h190q8 0 8 -6v-191q0 -8 -8 -8h-188q-8 0 -8 8z" />
<glyph unicode="&#xd6;" horiz-adv-x="1110" d="M141 432v569q0 184 90.5 298t262.5 135q14 2 14 -13v-178q0 -10 -14 -14q-139 -33 -140 -217v-590q0 -186 140 -217q14 -4 14 -15v-178q0 -14 -14 -12q-352 47 -353 432zM268 1544v191q0 6 6 6h191q8 0 8 -6v-191q0 -8 -8 -8h-189q-8 0 -8 8zM602 14v179q0 10 14 14 q139 31 140 217v590q-1 184 -140 217q-14 4 -14 14v178q0 14 14 13q172 -20 262.5 -134t90.5 -298v-570q0 -385 -353 -432q-14 -2 -14 12zM631 1544v191q0 6 6 6h190q8 0 9 -6v-191q-1 -8 -9 -8h-188q-8 0 -8 8z" />
<glyph unicode="&#xdc;" horiz-adv-x="1105" d="M141 432v989q0 12 13 13h180q12 -1 12 -13v-999q0 -184 148 -217q14 -4 14 -15v-180q0 -14 -14 -12q-172 23 -262.5 136.5t-90.5 297.5zM272 1544v191q0 6 7 6h190q8 0 8 -6v-191q0 -8 -8 -8h-188q-8 0 -9 8zM598 10v180q0 10 14 15q147 33 148 217v999q0 12 12 13h180 q12 0 13 -13v-989q0 -184 -90.5 -298t-262.5 -136q-14 -2 -14 12zM635 1544v191q0 6 6 6h190q8 0 9 -6v-191q-1 -8 -9 -8h-188q-8 0 -8 8z" />
<glyph unicode="&#xdf;" horiz-adv-x="2119" d="M123 199q0 4 2 6l143 114q6 4 11 0q74 -94 190 -110q12 0 14 -16v-187q0 -6 -12 -6q-223 16 -346 193q-2 2 -2 6zM125 1028q0 193 133 311q106 94 219 95q14 0 15 -9v-188q0 -10 -13 -10q-47 -10 -90 -51q-59 -57 -59 -146q0 -96 69 -149q51 -41 164 -70 q160 -23 262 -113q123 -106 123 -284q0 -172 -121 -299q-111 -115 -235 -115q-10 0 -10 6v187q0 16 10 16q61 14 104 63q49 57 49 144q0 150 -223 198q-172 20 -280 127q-117 113 -117 287zM584 1245v182q0 7 12 7q223 -18 346 -189q6 -6 0 -12l-141 -119q-10 -4 -15 0 q-66 96 -188 115q-12 0 -14 16zM1171 199q0 4 3 6l143 114q6 4 10 0q74 -94 191 -110q12 0 14 -16v-187q0 -6 -12 -6q-223 16 -346 193q-2 2 -3 6zM1174 1028q0 193 133 311q106 94 219 95q14 0 14 -9v-188q0 -10 -12 -10q-47 -10 -90 -51q-59 -57 -60 -146q0 -96 70 -149 q51 -41 164 -70q160 -23 262 -113q123 -106 123 -284q0 -172 -121 -299q-111 -115 -236 -115q-10 0 -10 6v187q0 16 10 16q61 14 105 63q49 57 49 144q0 150 -223 198q-172 20 -281 127q-117 113 -116 287zM1632 1245v182q1 7 13 7q223 -18 346 -189q6 -6 0 -12l-142 -119 q-10 -4 -14 0q-66 96 -188 115q-12 0 -15 16z" />
<glyph unicode="&#x2000;" horiz-adv-x="870" />
<glyph unicode="&#x2001;" horiz-adv-x="1741" />
<glyph unicode="&#x2002;" horiz-adv-x="870" />
<glyph unicode="&#x2003;" horiz-adv-x="1741" />
<glyph unicode="&#x2004;" horiz-adv-x="580" />
<glyph unicode="&#x2005;" horiz-adv-x="435" />
<glyph unicode="&#x2006;" horiz-adv-x="290" />
<glyph unicode="&#x2007;" horiz-adv-x="290" />
<glyph unicode="&#x2008;" horiz-adv-x="217" />
<glyph unicode="&#x2009;" horiz-adv-x="348" />
<glyph unicode="&#x200a;" horiz-adv-x="96" />
<glyph unicode="&#x2010;" horiz-adv-x="557" d="M82 578v174q0 14 12 14h367q14 0 14 -12v-179q0 -12 -10 -12h-371q-12 1 -12 15z" />
<glyph unicode="&#x2011;" horiz-adv-x="557" d="M82 578v174q0 14 12 14h367q14 0 14 -12v-179q0 -12 -10 -12h-371q-12 1 -12 15z" />
<glyph unicode="&#x2012;" horiz-adv-x="557" d="M82 578v174q0 14 12 14h367q14 0 14 -12v-179q0 -12 -10 -12h-371q-12 1 -12 15z" />
<glyph unicode="&#x2013;" horiz-adv-x="1202" d="M139 578v174q0 14 13 14h895q14 0 14 -12v-179q0 -12 -10 -12h-899q-13 1 -13 15z" />
<glyph unicode="&#x2014;" horiz-adv-x="2212" d="M82 578v174q0 14 63 14h1912q73 0 73 -12v-179q0 -12 -52 -12h-1933q-63 1 -63 15z" />
<glyph unicode="&#x202f;" horiz-adv-x="348" />
<glyph unicode="&#x205f;" horiz-adv-x="435" />
<glyph unicode="&#x25fc;" horiz-adv-x="1024" d="M0 0z" />
</font>
</defs>
</svg>
