<?xml version="1.0" standalone="no"?>
<!DOCTYPE svg PUBLIC "-//W3C//DTD SVG 1.1//EN" "http://www.w3.org/Graphics/SVG/1.1/DTD/svg11.dtd" >
<svg xmlns="http://www.w3.org/2000/svg" xmlns:xlink="http://www.w3.org/1999/xlink" version="1.1">
<metadata></metadata>
<defs>
<font id="dinregularalternate" horiz-adv-x="1085" >
<font-face units-per-em="2048" ascent="1638" descent="-410" />
<missing-glyph horiz-adv-x="509" />
<glyph horiz-adv-x="0" />
<glyph unicode="&#xd;" horiz-adv-x="509" />
<glyph unicode=" "  horiz-adv-x="509" />
<glyph unicode="&#x09;" horiz-adv-x="509" />
<glyph unicode="&#xa0;" horiz-adv-x="509" />
<glyph unicode="!" horiz-adv-x="647" d="M252 96q0 43 30.5 73t73.5 30t73 -30t30 -73t-30 -72.5t-73 -29.5t-73.5 29.5t-30.5 72.5zM270 1458h172l-26 -1048h-119z" />
<glyph unicode="&#x22;" horiz-adv-x="866" d="M180 1110v348h162v-348h-162zM524 1110v348h162v-348h-162z" />
<glyph unicode="#" horiz-adv-x="1337" d="M158 465v131h204l48 289h-189v135h207l70 440h153l-71 -440h325l70 440h149l-69 -440h178v-135h-197l-47 -289h182v-131h-202l-74 -465h-152l74 465h-328l-71 -465h-152l74 465h-182zM512 596h326l47 289h-326z" />
<glyph unicode="$" horiz-adv-x="1220" d="M86 180l107 107q150 -150 352 -158v543l-41 4q-158 16 -268.5 112.5t-110.5 270.5t110.5 284.5t301.5 124.5v183h122v-183q217 -10 381 -157l-100 -101q-125 113 -287 123v-530l64 -10q178 -29 264 -103q125 -107 125 -289q0 -176 -121 -285.5t-326 -123.5v-225h-122v221 q-270 12 -451 192zM279 1065q0 -113 65 -168q72 -62 201 -80v516q-127 -10 -196.5 -81.5t-69.5 -186.5zM653 129q139 10 218 80.5t79 187.5q0 119 -71 183q-45 39 -107 55q-25 6 -119 20v-526z" />
<glyph unicode="%" horiz-adv-x="1705" d="M133 981v215q0 125 78 201t199 76t198.5 -76t77.5 -201v-215q0 -123 -78 -198.5t-198 -75.5q-121 0 -199 75.5t-78 198.5zM250 985q0 -176 160 -176q159 0 159 176v207q0 178 -159 178q-160 0 -160 -178v-207zM451 0l684 1458h122l-684 -1458h-122zM1022 262v215 q0 125 78 201t198 76q121 0 199 -76t78 -201v-215q0 -125 -78 -200.5t-199 -75.5t-198.5 75.5t-77.5 200.5zM1139 266q0 -178 159 -178q160 0 160 178v207q0 178 -160 178t-159 -178v-207z" />
<glyph unicode="&#x26;" horiz-adv-x="1513" d="M158 412q0 147 98 260q61 72 217 176q-76 92 -106 141q-51 90 -52 176q0 131 91.5 218t230.5 87q137 0 227 -88t90 -219q0 -150 -161 -260q-37 -25 -109 -74l373 -448q80 121 82 334h147q-4 -289 -135 -447l223 -268h-194l-131 160q-184 -172 -431 -172 q-211 0 -335.5 115.5t-124.5 308.5zM309 416q0 -129 86 -210t221 -81q187 0 345 141l-402 484q-127 -88 -172 -138q-78 -86 -78 -196zM469 1167q0 -80 131 -239q23 14 78 53q131 90 131 182q0 74 -49 124t-123 50t-121 -48t-47 -122z" />
<glyph unicode="'" horiz-adv-x="522" d="M180 1110v348h162v-348h-162z" />
<glyph unicode="(" horiz-adv-x="610" d="M188 195v1069q0 133 43 211q35 63 148 176l100 -101l-63 -63q-29 -35 -47 -70q-33 -66 -33 -166v-1044q0 -100 33 -166q22 -45 110 -133l-100 -101q-63 63 -84 89q-39 43 -64 88q-43 80 -43 211z" />
<glyph unicode=")" horiz-adv-x="610" d="M127 -88l63 63q33 35 50 70q29 57 28 162v1044q0 104 -28 162q-20 41 -113 133l104 105q63 -63 84 -88q39 -43 64 -88q41 -76 41 -211v-1069q0 -135 -41 -211q-35 -63 -148 -177z" />
<glyph unicode="*" horiz-adv-x="970" d="M137 967l246 133l-246 135l60 98l237 -145l-8 280h119l-8 -280l239 145l58 -98l-246 -135l246 -133l-58 -101l-239 146l8 -281h-119l8 281l-237 -146z" />
<glyph unicode="+" horiz-adv-x="1069" d="M106 479v137h361v357h137v-357h359v-137h-359v-360h-137v360h-361z" />
<glyph unicode="," horiz-adv-x="540" d="M180 180h180v-313l-180 -162v475z" />
<glyph unicode="-" horiz-adv-x="872" d="M156 483v138h561v-138h-561z" />
<glyph unicode="." horiz-adv-x="557" d="M162 111q0 47 34.5 81.5t82.5 34.5q47 0 81.5 -34.5t34.5 -81.5t-34.5 -82t-81.5 -35t-82 34.5t-35 82.5z" />
<glyph unicode="/" horiz-adv-x="727" d="M0 -152l584 1762h145l-584 -1762h-145z" />
<glyph unicode="0" horiz-adv-x="1069" d="M135 389v445q0 178 113.5 289.5t286.5 111.5q172 0 285.5 -111.5t113.5 -289.5v-445q0 -178 -113.5 -289.5t-285.5 -111.5t-286 111.5t-114 289.5zM283 397q0 -123 66.5 -200.5t185.5 -77.5t185 77.5t66 200.5v428q0 123 -66.5 201t-184.5 78q-119 0 -185.5 -78 t-66.5 -201v-428z" />
<glyph unicode="1" horiz-adv-x="763" d="M104 819v168l273 236h147v-1223h-147v1059z" />
<glyph unicode="2" horiz-adv-x="1036" d="M84 0v131l514 496q139 135 139 274q0 104 -70.5 174t-179.5 70q-106 0 -178.5 -68.5t-72.5 -179.5h-148q0 164 113.5 271.5t285.5 107.5q176 0 287 -106.5t111 -266.5q0 -178 -189 -362l-417 -410h643v-131h-838z" />
<glyph unicode="3" horiz-adv-x="1054" d="M78 133h147q8 -129 92 -194q74 -57 189 -58q123 0 201.5 75t78.5 206q0 283 -286 282h-29v129h29q260 0 260 265q0 127 -72 196.5t-182 69.5q-115 0 -183.5 -64.5t-78.5 -177.5h-148q12 172 129 275q111 98 281 98q178 0 289.5 -108.5t111.5 -286.5q0 -233 -196 -324 q223 -84 223 -356q0 -195 -125 -307q-117 -104 -303 -105q-182 0 -295 94q-125 100 -133 291z" />
<glyph unicode="4" horiz-adv-x="1107" d="M74 61v136l540 1091h158l-543 -1091h465v419h146v-419h186v-136h-186v-313h-146v313h-620z" />
<glyph unicode="5" horiz-adv-x="1058" d="M125 109h147q29 -227 248 -228q113 0 180 68q80 80 80 297q0 354 -245 354q-195 0 -242 -143h-133v766h737v-131h-604v-463q90 100 262 100q160 0 252 -92q121 -121 121 -391t-117 -387q-109 -109 -291 -109q-190 0 -293 105q-90 90 -102 254z" />
<glyph unicode="6" horiz-adv-x="1079" d="M104 438q0 178 107 367l389 686h156l-369 -633q76 39 178 39q184 0 297 -124.5t113 -321.5q0 -203 -119 -333t-315 -130q-201 0 -319 122.5t-118 327.5zM252 442q0 -150 78 -239.5t209 -89.5t209.5 89.5t78.5 239.5q0 141 -73 234q-80 98 -215 98q-131 0 -209 -90 t-78 -242z" />
<glyph unicode="7" horiz-adv-x="1028" d="M92 862v361h864v-131l-596 -1344h-155l594 1344h-561v-230h-146z" />
<glyph unicode="8" horiz-adv-x="1101" d="M121 401q0 229 219 355q-193 111 -193 323q0 170 115 280.5t289 110.5t288.5 -110.5t114.5 -280.5q0 -213 -192 -323q219 -126 219 -355q0 -182 -123 -297.5t-307 -115.5t-307 115.5t-123 297.5zM268 403q0 -121 81 -202.5t202 -81.5t202 81.5t81 202.5t-81 203t-202 82 t-202 -82t-81 -203zM295 1077q0 -115 71.5 -187.5t184.5 -72.5t184.5 72.5t71.5 187.5t-71.5 188.5t-184.5 73.5t-184.5 -73.5t-71.5 -188.5z" />
<glyph unicode="9" horiz-adv-x="1079" d="M104 772q0 203 119 333t316 130q201 0 318.5 -123t117.5 -328q0 -178 -107 -366l-389 -686h-155l368 633q-76 -39 -178 -39q-184 0 -297 124.5t-113 321.5zM252 780q0 -141 74 -233q80 -98 215 -98q131 0 208.5 89.5t77.5 241.5q0 150 -77.5 240t-208.5 90t-210 -90 t-79 -240z" />
<glyph unicode=":" horiz-adv-x="612" d="M217 111q0 47 35 81.5t82 34.5t82 -34.5t35 -81.5t-35 -82t-82 -35t-82 34.5t-35 82.5zM217 707q0 47 35 81.5t82 34.5t82 -34.5t35 -81.5t-35 -82t-82 -35t-82 34.5t-35 82.5z" />
<glyph unicode=";" horiz-adv-x="608" d="M217 707q0 47 35 81.5t82 34.5t82 -34.5t35 -81.5t-35 -82t-82 -35t-82 34.5t-35 82.5zM244 180h180v-313l-180 -162v475z" />
<glyph unicode="&#x3c;" horiz-adv-x="2103" d="M236 430v193l745 -748v1616h143v-1616l746 748v-193l-817 -817z" />
<glyph unicode="=" horiz-adv-x="1069" d="M106 309v135h857v-135h-857zM106 655v138h857v-138h-857z" />
<glyph unicode="&#x3e;" horiz-adv-x="2103" d="M236 481v193l817 817l817 -817v-193l-746 748v-1616h-143v1616z" />
<glyph unicode="?" horiz-adv-x="1017" d="M156 1096q0 158 110.5 266t274.5 108t273.5 -105t109.5 -267q0 -115 -93 -248l-167 -242q-37 -53 -37 -119v-79h-148v82q0 100 64 192l166 240q68 98 67 174q0 104 -66.5 172.5t-168.5 68.5q-106 0 -172 -71.5t-66 -171.5h-147zM449 96q0 43 29.5 73t72.5 30t72.5 -30 t29.5 -73t-29.5 -72.5t-72.5 -29.5t-72.5 29.5t-29.5 72.5z" />
<glyph unicode="@" horiz-adv-x="1460" d="M147 328v688q0 213 114 328.5t317 115.5h303q201 0 316.5 -115.5t115.5 -328.5v-1018l-142 2v113q-100 -127 -274 -127q-209 0 -307 166q-61 104 -62 335q0 262 84 375q94 127 283 127q170 0 274 -129v160q0 152 -79.5 233.5t-227.5 81.5h-266q-141 0 -223 -82t-82 -233 v-690q0 -96 23.5 -146.5t93.5 -101.5l-101 -100q-94 70 -127 140.5t-33 205.5zM674 487q0 -172 43 -258q59 -117 205 -116q145 0 204 116q43 86 43 258t-43 258q-59 117 -204 117t-205 -117q-43 -86 -43 -258z" />
<glyph unicode="A" horiz-adv-x="1251" d="M25 0l536 1458h131l535 -1458h-166l-117 330h-637l-117 -330h-165zM354 465h545l-270 770z" />
<glyph unicode="B" horiz-adv-x="1368" d="M211 0v1458h549q193 0 311.5 -104.5t118.5 -284.5q0 -113 -60.5 -199t-154.5 -120q237 -89 237 -347q0 -195 -117.5 -299t-316.5 -104h-567zM367 139h397q135 0 214 73t79 196t-79 194.5t-214 71.5h-397v-535zM367 813h381q127 0 206.5 64.5t79.5 189.5t-78.5 188.5 t-207.5 63.5h-381v-506z" />
<glyph unicode="C" horiz-adv-x="1202" d="M156 729q0 268 16 361q27 135 121 229q151 151 370 151h3q225 0 409 -178l-104 -104q-76 74 -133 104q-76 39 -172 39q-152 0 -252 -102q-66 -68 -86 -170q-16 -90 -17 -330q0 -240 17 -330q20 -102 86 -170q100 -102 252 -102q96 0 172 39q57 31 133 104l104 -104 q-184 -178 -409 -178q-221 0 -373 151q-94 94 -121 230q-16 92 -16 360z" />
<glyph unicode="D" horiz-adv-x="1378" d="M211 0v1458h500q233 0 368 -135q100 -100 129 -270q15 -89 15 -308q0 -229 -15 -323q-29 -186 -129 -287q-135 -135 -368 -135h-500zM367 139h317q184 0 287 107q66 68 86 221q10 81 10 278q0 188 -10 263q-18 135 -86 204q-102 106 -287 107h-317v-1180z" />
<glyph unicode="E" horiz-adv-x="1228" d="M211 0v1458h905v-139h-749v-514h639v-139h-639v-527h749v-139h-905z" />
<glyph unicode="F" horiz-adv-x="1187" d="M211 0v1458h905v-139h-749v-537h639v-139h-639v-643h-156z" />
<glyph unicode="G" horiz-adv-x="1320" d="M156 729q0 268 16 361q27 135 121 229q151 151 370 151h3q137 0 241 -51q90 -43 195 -147l-105 -105q-86 86 -147 121q-80 43 -184 43q-150 0 -252 -104q-66 -68 -86 -170q-16 -88 -17 -328q0 -240 17 -330q20 -102 86 -170q100 -102 252 -102q170 0 274 125 q80 96 80 266v109h-354v137h510v-232q0 -242 -125 -376q-156 -168 -385 -168q-221 0 -373 151q-94 94 -121 230q-16 92 -16 360z" />
<glyph unicode="H" horiz-adv-x="1425" d="M211 0v1458h156v-653h692v653h155v-1458h-155v666h-692v-666h-156z" />
<glyph unicode="I" horiz-adv-x="577" d="M211 0v1458h156v-1458h-156z" />
<glyph unicode="J" horiz-adv-x="1026" d="M47 119l105 104q96 -96 229 -96q143 0 221 87t78 249v995h156v-1016q0 -209 -126 -331.5t-329 -122.5t-334 131z" />
<glyph unicode="K" horiz-adv-x="1331" d="M211 0v1458h156v-837l680 837h190l-459 -563l525 -895h-185l-444 776l-307 -368v-408h-156z" />
<glyph unicode="L" horiz-adv-x="1173" d="M211 0v1458h156v-1319h745v-139h-901z" />
<glyph unicode="M" horiz-adv-x="1671" d="M211 0v1458h156l475 -1034l463 1034h155v-1458h-155v1108l-400 -879h-133l-405 879v-1108h-156z" />
<glyph unicode="N" horiz-adv-x="1499" d="M211 0v1458h147l775 -1165v1165h155v-1458h-147l-774 1169v-1169h-156z" />
<glyph unicode="O" horiz-adv-x="1331" d="M156 729q0 268 16 361q27 135 121 229q151 151 370 151h3q221 0 372 -151q94 -94 121 -229q17 -93 17 -361t-17 -360q-27 -135 -121 -230q-151 -151 -369 -151h-3q-221 0 -373 151q-94 94 -121 230q-16 92 -16 360zM311 729q0 -240 17 -328q20 -102 86 -170 q102 -104 252 -104t252 104q66 68 86 170q16 88 16 328t-16 328q-20 102 -86 170q-102 104 -252 104t-252 -104q-66 -68 -86 -170q-16 -88 -17 -328z" />
<glyph unicode="P" horiz-adv-x="1290" d="M211 0v1458h543q201 0 325.5 -116.5t124.5 -311.5t-125 -312.5t-325 -117.5h-387v-600h-156zM367 739h372q141 0 225.5 75t84.5 216t-84 215t-226 74h-372v-580z" />
<glyph unicode="Q" horiz-adv-x="1329" d="M156 729q0 268 16 361q27 135 121 229q151 151 370 151h3q221 0 372 -151q94 -94 121 -229q16 -92 17 -361q0 -244 -13 -332q-18 -129 -88 -215l160 -159l-94 -95l-162 162q-133 -102 -313 -102q-221 0 -373 151q-94 94 -121 230q-16 92 -16 360zM311 729q0 -240 17 -328 q20 -102 86 -170q102 -104 252 -104q115 0 206 70l-184 184l94 94l179 -178q37 61 49 162q10 80 10 270q0 240 -16 328q-20 102 -86 170q-102 104 -252 104t-252 -104q-66 -68 -86 -170q-16 -88 -17 -328z" />
<glyph unicode="R" horiz-adv-x="1343" d="M211 0v1458h559q193 0 312.5 -109.5t119.5 -295.5q0 -156 -86 -258.5t-231 -132.5l346 -662h-182l-332 647h-350v-647h-156zM367 784h389q133 0 212 69t79 198t-80 198.5t-211 69.5h-389v-535z" />
<glyph unicode="S" horiz-adv-x="1204" d="M86 180l107 107q160 -160 397 -160q160 0 252 71.5t92 198.5q0 121 -70 183q-55 49 -190 69l-170 27q-174 27 -268 110q-111 98 -111 273q0 186 126 298.5t341 112.5q256 0 434 -159l-100 -101q-137 125 -340 125q-143 0 -225 -73.5t-82 -196.5q0 -111 67.5 -169 t194.5 -79l159 -24q178 -27 267 -103q123 -105 123 -289q0 -190 -137.5 -301.5t-366.5 -111.5q-307 0 -500 192z" />
<glyph unicode="T" horiz-adv-x="1122" d="M61 1319v139h1000v-139h-422v-1319h-156v1319h-422z" />
<glyph unicode="U" horiz-adv-x="1398" d="M190 481v977h156v-964q0 -166 96.5 -266.5t255.5 -100.5q160 0 257.5 100.5t97.5 266.5v964h155v-977q0 -217 -144 -355t-366 -138q-221 0 -364.5 138t-143.5 355z" />
<glyph unicode="V" horiz-adv-x="1118" d="M16 1458h164l379 -1179l379 1179h164l-479 -1458h-127z" />
<glyph unicode="W" horiz-adv-x="1748" d="M33 1458h166l284 -1175l322 1175h139l322 -1175l284 1175h166l-373 -1458h-145l-324 1167l-323 -1167h-145z" />
<glyph unicode="X" horiz-adv-x="1128" d="M31 0l446 748l-418 710h181l323 -575l324 575h180l-420 -710l451 -748h-180l-355 612l-356 -612h-176z" />
<glyph unicode="Y" horiz-adv-x="1052" d="M16 1458h168l344 -698l340 698h168l-430 -856v-602h-155v602z" />
<glyph unicode="Z" horiz-adv-x="1138" d="M117 0v147l729 1172h-701v139h877v-131l-735 -1188h735v-139h-905z" />
<glyph unicode="[" horiz-adv-x="641" d="M188 -152v1762h363v-131h-215v-1499h215v-132h-363z" />
<glyph unicode="\" horiz-adv-x="727" d="M0 1604h145l582 -1756h-145z" />
<glyph unicode="]" horiz-adv-x="641" d="M90 -25h221v1508h-221v127h363v-1762h-363v127z" />
<glyph unicode="^" horiz-adv-x="1099" d="M147 846l336 624h135l334 -624h-151l-250 467l-252 -467h-152z" />
<glyph unicode="_" horiz-adv-x="1099" d="M0 -233h1100v-105h-1100v105z" />
<glyph unicode="`" horiz-adv-x="1024" d="M256 1530h176l180 -313h-135z" />
<glyph unicode="a" horiz-adv-x="1077" d="M104 285q0 135 91.5 212.5t257.5 77.5h303v97q0 221 -258 221q-172 0 -254 -115l-101 92q66 84 152 119q78 31 205 31q403 0 403 -336v-684h-147v96q-108 -108 -288 -108h-3q-195 0 -285 92q-76 78 -76 205zM248 287q0 -172 231 -172q156 0 226 67q51 49 51 174v109h-283 q-225 0 -225 -178z" />
<glyph unicode="b" horiz-adv-x="1116" d="M184 0v1458h148v-567q100 129 284 129q158 0 246 -88q123 -123 123 -428t-123 -428q-88 -88 -246 -88q-182 0 -284 133v-121h-148zM332 504q0 -178 45 -266q59 -119 209 -119t209 119q43 88 43 266t-43 266q-59 119 -209 119t-209 -119q-45 -88 -45 -266z" />
<glyph unicode="c" horiz-adv-x="1003" d="M129 504q0 250 129 387q119 129 317 129q106 0 180 -33t152 -117l-100 -94q-102 113 -232 113q-152 0 -233 -115q-66 -92 -66 -270t66 -271q81 -114 230 -114h3q127 0 232 114l100 -96q-78 -84 -151.5 -116.5t-180.5 -32.5q-199 0 -317 129q-129 137 -129 387z" />
<glyph unicode="d" horiz-adv-x="1116" d="M131 504q0 305 123 428q88 88 246 88q184 0 284 -129v567h148v-1458h-146v121q-102 -133 -286 -133q-158 0 -246 88q-123 123 -123 428zM279 504q0 -178 45 -266q59 -119 208 -119q150 0 209 119q43 88 43 266t-43 266q-59 119 -209 119t-208 -119q-45 -88 -45 -266z" />
<glyph unicode="e" d="M129 504q0 244 110.5 380t303.5 136q195 0 304 -131t109 -357v-67h-680q0 -166 77 -257t220 -91q150 0 265 114l100 -88q-82 -82 -158 -116q-88 -39 -211 -39q-207 0 -319 125q-121 131 -121 391zM276 575h533q-6 106 -31 168q-63 152 -235 152t-236 -152 q-25 -61 -31 -168z" />
<glyph unicode="f" horiz-adv-x="643" d="M88 889v112h129v191q0 119 64 190q70 80 192 80h107v-127h-80q-135 0 -135 -147v-187h215v-112h-215v-889h-148v889h-129z" />
<glyph unicode="g" horiz-adv-x="1112" d="M131 512q0 297 123 420q88 88 246 88q182 0 282 -131v119h146v-1039q0 -190 -113 -311t-307 -121q-111 0 -185.5 31t-156.5 104l96 95q61 -55 105 -76q55 -25 137 -25q139 0 211 90q66 82 65 219v158q-102 -131 -282 -131q-154 0 -244 90q-123 123 -123 420zM279 512 q0 -172 43 -258q59 -119 208 -119q150 0 207 119q43 86 43 258t-43 260q-57 117 -207 117t-208 -117q-43 -88 -43 -260z" />
<glyph unicode="h" horiz-adv-x="1150" d="M184 0v1458h148v-561q109 123 282 123q170 0 266.5 -100.5t96.5 -272.5v-647h-148v623q0 266 -245 266q-117 0 -184.5 -68.5t-67.5 -197.5v-623h-148z" />
<glyph unicode="i" horiz-adv-x="518" d="M158 1386q0 41 29.5 71t70.5 30t71.5 -30t30.5 -71t-30.5 -70.5t-71.5 -29.5t-70.5 30t-29.5 70zM184 0v1008h148v-1008h-148z" />
<glyph unicode="j" horiz-adv-x="518" d="M-31 -324h80q135 0 135 148v1184h148v-1190q0 -121 -62 -193q-68 -78 -194 -78h-107v129zM158 1386q0 41 29.5 71t70.5 30t71.5 -30t30.5 -71t-30.5 -70.5t-71.5 -29.5t-70.5 30t-29.5 70z" />
<glyph unicode="k" horiz-adv-x="1097" d="M184 0v1458h148v-975l454 525h185l-342 -385l401 -623h-182l-320 516l-196 -225v-291h-148z" />
<glyph unicode="l" horiz-adv-x="608" d="M180 268v1190h148v-1184q0 -147 135 -147h80v-127h-107q-127 0 -191.5 73.5t-64.5 194.5z" />
<glyph unicode="m" horiz-adv-x="1800" d="M184 0v1008h148v-111q109 123 284 123q215 0 310 -168q119 168 331 168q164 0 261 -94q109 -104 108 -281v-645h-147v621q0 268 -248 268q-113 0 -182.5 -67.5t-69.5 -184.5v-637h-148v621q0 268 -247 268q-117 0 -184.5 -69.5t-67.5 -198.5v-621h-148z" />
<glyph unicode="n" horiz-adv-x="1150" d="M184 0v1008h148v-111q109 123 282 123q162 0 258 -94q104 -102 105 -281v-645h-148v621q0 268 -247 268q-117 0 -183.5 -69.5t-66.5 -198.5v-621h-148z" />
<glyph unicode="o" d="M131 504q0 276 123 401q113 115 289 115t288 -115q123 -125 123 -401t-123 -402q-112 -114 -285 -114h-3q-176 0 -289 114q-123 125 -123 402zM279 504q0 -229 81 -311q74 -74 183 -74q111 0 187.5 77t76.5 308t-80 311q-74 74 -184 74q-109 0 -183 -74q-81 -81 -81 -306 v-5z" />
<glyph unicode="p" horiz-adv-x="1116" d="M184 -451v1459h148v-119q100 131 284 131q158 0 246 -88q123 -123 123 -428t-123 -428q-88 -88 -246 -88q-182 0 -284 131v-570h-148zM332 504q0 -178 45 -266q59 -119 209 -119t209 119q43 88 43 266t-43 266q-59 119 -209 119t-209 -119q-45 -88 -45 -266z" />
<glyph unicode="q" horiz-adv-x="1116" d="M131 504q0 305 123 428q88 88 246 88q186 0 286 -131v119h146v-1459h-148v570q-102 -131 -284 -131q-158 0 -246 88q-123 123 -123 428zM279 504q0 -178 45 -266q59 -119 208 -119q150 0 209 119q43 88 43 266t-43 266q-59 119 -209 119t-208 -119q-45 -88 -45 -266z" />
<glyph unicode="r" horiz-adv-x="862" d="M184 0v1008h148v-123q88 135 282 135q148 0 242 -94l-108 -111q-74 74 -175 74q-109 0 -175 -77t-66 -194v-618h-148z" />
<glyph unicode="s" horiz-adv-x="1015" d="M88 133l98 98q110 -116 311 -116h3q268 0 268 178q0 133 -168 147l-166 15q-301 27 -301 270q0 135 103.5 215t267.5 80q229 0 362 -109l-96 -96q-104 80 -268 80q-225 0 -226 -166q0 -131 177 -147l161 -15q297 -26 297 -272q0 -143 -111.5 -225t-297.5 -82 q-262 0 -414 145z" />
<glyph unicode="t" horiz-adv-x="679" d="M82 889v112h127v316h147v-316h215v-112h-215v-615q0 -147 138 -147h77v-127h-104q-125 0 -193 80q-66 72 -65 190v619h-127z" />
<glyph unicode="u" horiz-adv-x="1150" d="M174 365v643h148v-621q0 -268 245 -268q117 0 184.5 69.5t67.5 198.5v621h148v-1008h-146v113q-109 -125 -284 -125q-164 0 -261 94q-102 100 -102 283z" />
<glyph unicode="v" horiz-adv-x="915" d="M23 1008h159l275 -809l276 809h160l-371 -1008h-131z" />
<glyph unicode="w" horiz-adv-x="1482" d="M23 1008h159l232 -809l264 809h127l266 -809l229 809h160l-317 -1008h-137l-265 782l-262 -782h-137z" />
<glyph unicode="x" horiz-adv-x="978" d="M68 0l342 514l-328 494h178l232 -373l227 373h178l-328 -494l342 -514h-178l-241 391l-246 -391h-178z" />
<glyph unicode="y" horiz-adv-x="915" d="M23 1008h159l277 -809l274 809h160l-459 -1252q-29 -78 -72 -118q-74 -70 -196 -70h-64v131h45q74 0 107 26.5t59 98.5l72 196z" />
<glyph unicode="z" horiz-adv-x="940" d="M102 0v127l562 750h-531v131h701v-125l-564 -752h564v-131h-732z" />
<glyph unicode="{" horiz-adv-x="724" d="M98 664v131h54q55 0 92 36.5t37 122.5v392q0 141 61 202.5t207 61.5h76v-131h-47q-117 0 -138 -54q-12 -31 -12 -106v-385q0 -143 -129 -205q129 -61 129 -205v-385q0 -115 39 -141q27 -18 111 -18h47v-132h-76q-145 0 -206.5 61.5t-61.5 203.5v391q0 86 -37 123t-92 37 h-54z" />
<glyph unicode="|" horiz-adv-x="667" d="M260 -152v1762h148v-1762h-148z" />
<glyph unicode="}" horiz-adv-x="724" d="M98 -20h49q92 0 121 28.5t29 130.5v385q0 143 129 205q-129 61 -129 205v385q0 113 -41 141q-27 18 -109 19h-49v131h78q145 0 206.5 -61.5t61.5 -202.5v-392q0 -86 37 -122.5t92 -36.5h52v-131h-52q-55 0 -92 -37t-37 -123v-391q0 -141 -61 -203t-207 -62h-78v132z" />
<glyph unicode="~" horiz-adv-x="1103" d="M100 543q84 84 142 112q51 27 123 27q76 0 215 -64q109 -49 159 -49q80 0 172 93l93 -93q-84 -84 -138.5 -111.5t-126.5 -27.5q-78 0 -217 64q-109 49 -160 49q-80 0 -172 -92z" />
<glyph unicode="&#xa1;" horiz-adv-x="647" d="M203 911q0 43 29.5 73t72.5 30t73 -30t30 -73t-30 -72.5t-73 -29.5t-72.5 29.5t-29.5 72.5zM219 -451l27 1049h119l26 -1049h-172z" />
<glyph unicode="&#xa2;" horiz-adv-x="1019" d="M129 750q0 217 100 354q98 131 271 156v198h121v-194q168 -12 297 -152l-101 -94q-92 104 -205 112v-761q113 8 205 112l101 -94q-129 -139 -297 -151v-236h-121v240q-172 25 -271.5 158.5t-99.5 351.5zM276 750q0 -176 66 -267.5t166 -109.5v753q-100 -18 -164 -106 q-68 -94 -68 -270z" />
<glyph unicode="&#xa3;" horiz-adv-x="1122" d="M96 676v110h129v230q0 207 127 330.5t330 123.5t334 -131l-107 -104q-96 96 -227 96q-143 0 -221 -87t-78 -249v-209h299v-110h-299v-537h633v-139h-791v676h-129z" />
<glyph unicode="&#xa4;" horiz-adv-x="1351" d="M160 133l151 152q-90 121 -90 270q0 150 90 270l-151 150l94 94l152 -149q117 88 270 88q152 0 268 -88l154 149l94 -94l-152 -150q90 -121 90 -270q0 -150 -90 -270l152 -152l-94 -94l-154 151q-121 -90 -268 -90q-150 0 -270 90l-152 -151zM356 555q0 -131 94.5 -225 t225.5 -94t224 93t93 226t-92 225t-225 92t-226.5 -93t-93.5 -224z" />
<glyph unicode="&#xa5;" horiz-adv-x="1052" d="M16 1458h168l344 -698l342 698h166l-321 -637h205v-110h-261l-53 -109v-106h314v-113h-314v-383h-157v383h-316v113h316v106l-54 109h-262v110h205z" />
<glyph unicode="&#xa6;" horiz-adv-x="686" d="M260 -152v717h148v-717h-148zM260 893v717h148v-717h-148z" />
<glyph unicode="&#xa7;" horiz-adv-x="1140" d="M178 516q0 119 66 211q57 80 149 125q-190 86 -190 283q0 150 103.5 242.5t264.5 92.5q162 0 264.5 -87t108.5 -234h-147q-14 190 -226 190q-221 0 -221 -202q0 -147 172 -197l160 -45q133 -37 207 -136.5t74 -238.5q0 -117 -66 -211q-57 -80 -147 -125q199 -74 198 -295 q0 -158 -107.5 -255t-269.5 -97q-160 0 -264 82q-115 90 -123 248h150q18 -195 237 -195q106 0 167 56.5t61 158.5q0 158 -181 209l-159 45q-281 80 -281 375zM328 518q0 -115 67.5 -188.5t175.5 -73.5q109 0 175.5 72.5t66.5 189.5q0 123 -65 189q-74 74 -177 73 q-109 0 -176 -73.5t-67 -188.5z" />
<glyph unicode="&#xa8;" horiz-adv-x="1024" d="M203 1321q0 39 26.5 66.5t65.5 27.5t65.5 -27.5t26.5 -66.5t-26.5 -65.5t-65.5 -26.5t-65.5 26.5t-26.5 65.5zM637 1321q0 39 26.5 66.5t65.5 27.5t65.5 -27.5t26.5 -66.5t-26.5 -65.5t-65.5 -26.5t-65.5 26.5t-26.5 65.5z" />
<glyph unicode="&#xa9;" horiz-adv-x="1804" d="M160 729q0 307 217 524t524 217t524 -217t217 -524t-217 -524t-524 -217t-524 217t-217 524zM281 729q0 -260 181 -445.5t439 -185.5t440.5 185.5t182.5 445.5t-182.5 445.5t-440.5 185.5t-439 -185.5t-181 -445.5zM547 729q0 186 95 302t269 116q145 0 269 -109l-74 -73 q-90 80 -195 79q-250 0 -249 -315q0 -313 249 -313q106 0 195 78l74 -74q-119 -106 -269 -107q-174 0 -270 119q-94 111 -94 297z" />
<glyph unicode="&#xaa;" horiz-adv-x="919" d="M115 879q0 109 72.5 171t203.5 62h236v74q0 172 -199 172q-135 0 -201 -90l-84 75q96 123 287 123q317 0 318 -270v-543h-119v74q-86 -84 -228 -84q-154 0 -225 74q-61 63 -61 162zM236 883q0 -133 176 -133q123 0 176 51q39 37 39 137v82h-219q-172 0 -172 -137z" />
<glyph unicode="&#xab;" horiz-adv-x="1134" d="M82 549l430 430v-184l-246 -246l246 -248v-182zM545 549l430 430v-184l-248 -246l248 -248v-182z" />
<glyph unicode="&#xac;" horiz-adv-x="1069" d="M104 492v137h861v-418h-138v281h-723z" />
<glyph unicode="&#xad;" horiz-adv-x="872" d="M156 483v138h561v-138h-561z" />
<glyph unicode="&#xae;" horiz-adv-x="1804" d="M160 729q0 307 217 524t524 217t524 -217t217 -524t-217 -524t-524 -217t-524 217t-217 524zM279 729q0 -262 182 -447.5t440 -185.5t441.5 185.5t183.5 447.5t-183.5 447.5t-441.5 185.5t-440 -185.5t-182 -447.5zM659 324v813h277q106 0 181 -71t75 -173 q0 -170 -174 -223l194 -346h-131l-186 331h-123v-331h-113zM772 752h152q68 0 110.5 40t42.5 101t-43 102t-110 41h-152v-284z" />
<glyph unicode="&#xaf;" horiz-adv-x="1024" d="M203 1257v117h618v-117h-618z" />
<glyph unicode="&#xb0;" horiz-adv-x="948" d="M137 1141q0 139 99.5 237.5t238.5 98.5t237.5 -98.5t98.5 -237.5t-98.5 -237.5t-237.5 -98.5t-238.5 98t-99.5 238zM262 1141q0 -92 61.5 -154.5t151.5 -62.5t150.5 62.5t60.5 154.5t-61.5 154.5t-151.5 62.5t-150.5 -62.5t-60.5 -154.5z" />
<glyph unicode="&#xb1;" horiz-adv-x="1069" d="M106 0v137h857v-137h-857zM106 592v137h361v358h137v-358h359v-137h-359v-363h-137v363h-361z" />
<glyph unicode="&#xb2;" horiz-adv-x="700" d="M98 584v106l338 414q47 57 47 119q0 137 -133 137t-133 -137h-119q0 111 71 177t181 66q113 0 182.5 -66.5t69.5 -176.5q0 -92 -80 -189l-282 -344h362v-106h-504z" />
<glyph unicode="&#xb3;" horiz-adv-x="729" d="M98 817h119q6 -137 150 -137q66 0 106.5 40t40.5 109q0 150 -154 150h-18v102h18q139 0 140 140q0 66 -39 102.5t-96 36.5q-127 0 -138 -129h-116q6 109 77.5 172t176.5 63q111 0 181 -67.5t70 -175.5q0 -137 -110 -189q125 -53 125 -205q0 -121 -75 -188.5t-189 -67.5 q-113 0 -185 60q-80 66 -84 184z" />
<glyph unicode="&#xb4;" horiz-adv-x="1024" d="M412 1217l180 313h176l-221 -313h-135z" />
<glyph unicode="&#xb5;" horiz-adv-x="1148" d="M170 -451v1459h147v-621q0 -268 248 -268q117 0 184.5 69.5t67.5 198.5v621h148v-1008h-148v113q-109 -125 -282 -125q-135 0 -218 75v-514h-147z" />
<glyph unicode="&#xb6;" horiz-adv-x="1234" d="M86 1061q0 170 120 283.5t324 113.5h494v-1909h-147v1770h-240v-1770h-148v1119q-178 0 -292 120q-111 115 -111 273z" />
<glyph unicode="&#xb7;" horiz-adv-x="557" d="M162 547q0 47 34.5 81t82.5 34q47 0 81.5 -34t34.5 -81t-34.5 -82t-81.5 -35t-82 35t-35 82z" />
<glyph unicode="&#xb8;" horiz-adv-x="1024" d="M358 -442l146 305h137l-121 -305h-162z" />
<glyph unicode="&#xb9;" horiz-adv-x="534" d="M88 1178v135l170 145h117v-874h-117v743z" />
<glyph unicode="&#xba;" horiz-adv-x="931" d="M137 1055q0 219 99 319q90 92 229 92t229 -92q99 -100 99 -319t-99 -320q-88 -90 -229 -90t-229 90q-98 100 -99 320zM260 1055q0 -180 60.5 -240.5t144.5 -60.5t145.5 61.5t61.5 239.5q0 180 -64 243q-57 57 -143 58q-86 0 -145.5 -59.5t-59.5 -241.5z" />
<glyph unicode="&#xbb;" horiz-adv-x="1134" d="M160 119v182l248 248l-248 246v184l430 -430zM623 119v182l245 248l-245 246v184l430 -430z" />
<glyph unicode="&#xbc;" horiz-adv-x="1591" d="M88 1178v135l170 145h117v-874h-117v743zM354 0l682 1458h123l-682 -1458h-123zM946 131v109l309 634h127l-307 -634h223v215h115v-215h96v-109h-96v-131h-115v131h-352z" />
<glyph unicode="&#xbd;" horiz-adv-x="1617" d="M88 1178v135l170 145h117v-874h-117v743zM330 0l682 1458h123l-682 -1458h-123zM1016 0v106l338 414q47 57 47 119q0 137 -133 137t-133 -137h-119q0 111 70.5 177.5t181.5 66.5q113 0 182.5 -66.5t69.5 -177.5q0 -90 -80 -188l-281 -345h361v-106h-504z" />
<glyph unicode="&#xbe;" horiz-adv-x="1683" d="M98 817h119q6 -137 150 -137q66 0 106.5 40t40.5 109q0 150 -154 150h-18v102h18q139 0 140 140q0 66 -39 102.5t-96 36.5q-127 0 -138 -129h-116q6 109 77.5 172t176.5 63q111 0 181 -67.5t70 -175.5q0 -137 -110 -189q125 -53 125 -205q0 -121 -75 -188.5t-189 -67.5 q-113 0 -185 60q-80 66 -84 184zM461 0l684 1458h123l-684 -1458h-123zM1038 131v109l310 634h127l-310 -634h226v215h114v-215h97v-109h-97v-131h-114v131h-353z" />
<glyph unicode="&#xbf;" horiz-adv-x="1017" d="M106 -88q0 113 93 246l168 241q37 53 36 119v82h148v-84q0 -102 -64 -192l-165 -238q-68 -96 -68 -174q0 -104 66.5 -173t168.5 -69q106 0 172 71t66 171h147q0 -158 -110.5 -266.5t-274.5 -108.5t-273.5 105.5t-109.5 269.5zM375 911q0 43 30.5 73t73.5 30t73 -30 t30 -73t-30 -72.5t-73 -29.5t-73.5 29.5t-30.5 72.5z" />
<glyph unicode="&#xc0;" horiz-adv-x="1251" d="M25 0l536 1458h131l535 -1458h-166l-117 330h-637l-117 -330h-165zM354 465h545l-270 770zM362 1913h176l180 -313h-135z" />
<glyph unicode="&#xc1;" horiz-adv-x="1251" d="M25 0l536 1458h131l535 -1458h-166l-117 330h-637l-117 -330h-165zM354 465h545l-270 770zM518 1600l180 313h176l-221 -313h-135z" />
<glyph unicode="&#xc2;" horiz-adv-x="1251" d="M25 0l536 1458h131l535 -1458h-166l-117 330h-637l-117 -330h-165zM292 1600l256 313h140l256 -313h-142l-184 213l-184 -213h-142zM354 465h545l-270 770z" />
<glyph unicode="&#xc3;" horiz-adv-x="1251" d="M25 0l536 1458h131l535 -1458h-166l-117 330h-637l-117 -330h-165zM288 1726q104 104 195 105q66 0 145 -49q68 -41 115 -41q55 0 121 65l76 -73q-104 -104 -195 -105q-63 0 -145 47q-74 43 -115 43q-55 0 -121 -65zM354 465h545l-270 770z" />
<glyph unicode="&#xc4;" horiz-adv-x="1251" d="M25 0l536 1458h131l535 -1458h-166l-117 330h-637l-117 -330h-165zM309 1704q0 39 26.5 66.5t65.5 27.5t65.5 -27.5t26.5 -66.5t-26.5 -65.5t-65.5 -26.5t-65.5 26.5t-26.5 65.5zM354 465h545l-270 770zM743 1704q0 39 26.5 66.5t65.5 27.5t65.5 -27.5t26.5 -66.5 t-26.5 -65.5t-65.5 -26.5t-65.5 26.5t-26.5 65.5z" />
<glyph unicode="&#xc5;" horiz-adv-x="1251" d="M25 0l536 1458h131l535 -1458h-166l-117 330h-637l-117 -330h-165zM354 465h545l-270 770zM376 1776q0 100 71 171t171 71t171 -71t71 -171t-71 -172t-171 -72t-171 72t-71 172zM477 1776q0 -57 42 -99t99 -42q59 0 100 42t41 99t-41 98t-100 41t-100 -41t-41 -98z" />
<glyph unicode="&#xc6;" horiz-adv-x="1888" d="M16 0l770 1458h990v-139h-750v-518h639v-139h-639v-523h750v-139h-904v346h-505l-181 -346h-170zM434 481h438v838z" />
<glyph unicode="&#xc7;" horiz-adv-x="1282" d="M156 729q0 268 16 361q27 135 121 229q152 152 373 151q225 0 409 -178l-104 -104q-76 74 -133 104q-76 39 -172 39q-152 0 -252 -102q-66 -68 -86 -170q-16 -90 -17 -330q0 -240 17 -330q20 -102 86 -170q100 -102 252 -102q96 0 172 39q57 31 133 104l104 -104 q-184 -178 -409 -178q-221 0 -373 151q-94 94 -121 230q-16 92 -16 360zM475 -442l146 305h137l-121 -305h-162z" />
<glyph unicode="&#xc8;" horiz-adv-x="1228" d="M211 0v1458h905v-139h-749v-514h639v-139h-639v-527h749v-139h-905zM385 1913h176l180 -313h-135z" />
<glyph unicode="&#xc9;" horiz-adv-x="1228" d="M211 0v1458h905v-139h-749v-514h639v-139h-639v-527h749v-139h-905zM541 1600l180 313h176l-221 -313h-135z" />
<glyph unicode="&#xca;" horiz-adv-x="1228" d="M211 0v1458h905v-139h-749v-514h639v-139h-639v-527h749v-139h-905zM315 1600l256 313h140l256 -313h-142l-184 213l-184 -213h-142z" />
<glyph unicode="&#xcb;" horiz-adv-x="1228" d="M211 0v1458h905v-139h-749v-514h639v-139h-639v-527h749v-139h-905zM332 1704q0 39 26.5 66.5t65.5 27.5t65.5 -27.5t26.5 -66.5t-26.5 -65.5t-65.5 -26.5t-65.5 26.5t-26.5 65.5zM766 1704q0 39 26.5 66.5t65.5 27.5t65.5 -27.5t26.5 -66.5t-26.5 -65.5t-65.5 -26.5 t-65.5 26.5t-26.5 65.5z" />
<glyph unicode="&#xcc;" horiz-adv-x="577" d="M63 1913h176l180 -313h-135zM211 0v1458h156v-1458h-156z" />
<glyph unicode="&#xcd;" horiz-adv-x="577" d="M162 1600l180 313h176l-221 -313h-135zM211 0v1458h156v-1458h-156z" />
<glyph unicode="&#xce;" horiz-adv-x="577" d="M-41 1600l256 313h140l256 -313h-142l-184 213l-184 -213h-142zM211 0v1458h156v-1458h-156z" />
<glyph unicode="&#xcf;" horiz-adv-x="577" d="M-22 1704q0 39 26.5 66.5t65.5 27.5t65.5 -27.5t26.5 -66.5t-26.5 -65.5t-65.5 -26.5t-65.5 26.5t-26.5 65.5zM211 0v1458h156v-1458h-156zM412 1704q0 39 26.5 66.5t65.5 27.5t65.5 -27.5t26.5 -66.5t-26.5 -65.5t-65.5 -26.5t-65.5 26.5t-26.5 65.5z" />
<glyph unicode="&#xd0;" horiz-adv-x="1406" d="M80 676v121h160v661h501q276 0 420 -219q61 -94 76 -184q14 -82 14 -326q0 -213 -6 -266q-16 -152 -84 -248q-154 -215 -432 -215h-489v676h-160zM397 137h316q219 0 319 152q43 66 53 143q11 68 11 289q0 219 -11 293q-14 92 -63 160q-106 147 -309 147h-316v-524h330 v-121h-330v-539z" />
<glyph unicode="&#xd1;" horiz-adv-x="1499" d="M211 0v1458h147l775 -1165v1165h155v-1458h-147l-774 1169v-1169h-156zM420 1726q104 104 195 105q66 0 145 -49q68 -41 115 -41q55 0 121 65l76 -73q-104 -104 -195 -105q-63 0 -145 47q-74 43 -115 43q-55 0 -121 -65z" />
<glyph unicode="&#xd2;" horiz-adv-x="1331" d="M156 729q0 268 16 361q27 135 121 229q152 152 373 151q221 0 372 -151q94 -94 121 -229q17 -93 17 -361t-17 -360q-27 -135 -121 -230q-152 -152 -372 -151q-221 0 -373 151q-94 94 -121 230q-16 92 -16 360zM311 729q0 -240 17 -328q20 -102 86 -170q102 -104 252 -104 t252 104q66 68 86 170q16 88 16 328t-16 328q-20 102 -86 170q-102 104 -252 104t-252 -104q-66 -68 -86 -170q-16 -88 -17 -328zM410 1913h176l180 -313h-135z" />
<glyph unicode="&#xd3;" horiz-adv-x="1331" d="M156 729q0 268 16 361q27 135 121 229q152 152 373 151q221 0 372 -151q94 -94 121 -229q17 -93 17 -361t-17 -360q-27 -135 -121 -230q-152 -152 -372 -151q-221 0 -373 151q-94 94 -121 230q-16 92 -16 360zM311 729q0 -240 17 -328q20 -102 86 -170q102 -104 252 -104 t252 104q66 68 86 170q16 88 16 328t-16 328q-20 102 -86 170q-102 104 -252 104t-252 -104q-66 -68 -86 -170q-16 -88 -17 -328zM566 1600l180 313h176l-221 -313h-135z" />
<glyph unicode="&#xd4;" horiz-adv-x="1331" d="M156 729q0 268 16 361q27 135 121 229q152 152 373 151q221 0 372 -151q94 -94 121 -229q17 -93 17 -361t-17 -360q-27 -135 -121 -230q-152 -152 -372 -151q-221 0 -373 151q-94 94 -121 230q-16 92 -16 360zM311 729q0 -240 17 -328q20 -102 86 -170q102 -104 252 -104 t252 104q66 68 86 170q16 88 16 328t-16 328q-20 102 -86 170q-102 104 -252 104t-252 -104q-66 -68 -86 -170q-16 -88 -17 -328zM340 1600l256 313h140l256 -313h-142l-184 213l-184 -213h-142z" />
<glyph unicode="&#xd5;" horiz-adv-x="1331" d="M156 729q0 268 16 361q27 135 121 229q152 152 373 151q221 0 372 -151q94 -94 121 -229q17 -93 17 -361t-17 -360q-27 -135 -121 -230q-152 -152 -372 -151q-221 0 -373 151q-94 94 -121 230q-16 92 -16 360zM311 729q0 -240 17 -328q20 -102 86 -170q102 -104 252 -104 t252 104q66 68 86 170q16 88 16 328t-16 328q-20 102 -86 170q-102 104 -252 104t-252 -104q-66 -68 -86 -170q-16 -88 -17 -328zM336 1726q104 104 195 105q66 0 145 -49q68 -41 115 -41q55 0 121 65l76 -73q-104 -104 -195 -105q-63 0 -145 47q-74 43 -115 43 q-55 0 -121 -65z" />
<glyph unicode="&#xd6;" horiz-adv-x="1331" d="M156 729q0 268 16 361q27 135 121 229q152 152 373 151q221 0 372 -151q94 -94 121 -229q17 -93 17 -361t-17 -360q-27 -135 -121 -230q-152 -152 -372 -151q-221 0 -373 151q-94 94 -121 230q-16 92 -16 360zM311 729q0 -240 17 -328q20 -102 86 -170q102 -104 252 -104 t252 104q66 68 86 170q16 88 16 328t-16 328q-20 102 -86 170q-102 104 -252 104t-252 -104q-66 -68 -86 -170q-16 -88 -17 -328zM357 1704q0 39 26.5 66.5t65.5 27.5t65.5 -27.5t26.5 -66.5t-26.5 -65.5t-65.5 -26.5t-65.5 26.5t-26.5 65.5zM791 1704q0 39 26.5 66.5 t65.5 27.5t65.5 -27.5t26.5 -66.5t-26.5 -65.5t-65.5 -26.5t-65.5 26.5t-26.5 65.5z" />
<glyph unicode="&#xd7;" horiz-adv-x="1069" d="M133 244l309 309l-309 309l92 92l310 -311l309 311l92 -92l-311 -309l311 -309l-92 -92l-309 309l-310 -309z" />
<glyph unicode="&#xd8;" horiz-adv-x="1335" d="M156 729q0 268 16 361q27 135 121 229q152 152 373 151q143 0 256 -63l69 141h133l-102 -213l16 -16q94 -94 121 -232q17 -90 17 -358t-17 -360q-27 -135 -121 -230q-152 -152 -372 -151q-143 0 -258 65l-68 -143h-133l102 213l-16 16q-94 94 -121 232q-16 90 -16 358z M311 729q0 -213 13 -297q14 -102 59 -164l479 1004q-92 59 -196 59q-150 0 -252 -104q-66 -68 -86 -170q-16 -88 -17 -328zM469 186q92 -59 197 -59q150 0 252 104q66 68 83 170q17 86 17 328q0 215 -10 299q-14 100 -60 162z" />
<glyph unicode="&#xd9;" horiz-adv-x="1396" d="M190 481v977h156v-964q0 -166 96.5 -266.5t255.5 -100.5q160 0 257.5 100.5t97.5 266.5v964h155v-977q0 -217 -144 -355t-366 -138q-221 0 -364.5 138t-143.5 355zM442 1913h176l180 -313h-135z" />
<glyph unicode="&#xda;" horiz-adv-x="1396" d="M190 481v977h156v-964q0 -166 96.5 -266.5t255.5 -100.5q160 0 257.5 100.5t97.5 266.5v964h155v-977q0 -217 -144 -355t-366 -138q-221 0 -364.5 138t-143.5 355zM598 1600l180 313h176l-221 -313h-135z" />
<glyph unicode="&#xdb;" horiz-adv-x="1396" d="M190 481v977h156v-964q0 -166 96.5 -266.5t255.5 -100.5q160 0 257.5 100.5t97.5 266.5v964h155v-977q0 -217 -144 -355t-366 -138q-221 0 -364.5 138t-143.5 355zM372 1600l256 313h140l256 -313h-142l-184 213l-184 -213h-142z" />
<glyph unicode="&#xdc;" horiz-adv-x="1396" d="M190 481v977h156v-964q0 -166 96.5 -266.5t255.5 -100.5q160 0 257.5 100.5t97.5 266.5v964h155v-977q0 -217 -144 -355t-366 -138q-221 0 -364.5 138t-143.5 355zM389 1704q0 39 26.5 66.5t65.5 27.5t65.5 -27.5t26.5 -66.5t-26.5 -65.5t-65.5 -26.5t-65.5 26.5 t-26.5 65.5zM823 1704q0 39 26.5 66.5t65.5 27.5t65.5 -27.5t26.5 -66.5t-26.5 -65.5t-65.5 -26.5t-65.5 26.5t-26.5 65.5z" />
<glyph unicode="&#xdd;" horiz-adv-x="1052" d="M16 1458h168l344 -698l340 698h168l-430 -856v-602h-155v602zM426 1600l180 313h176l-221 -313h-135z" />
<glyph unicode="&#xde;" horiz-adv-x="1314" d="M211 0v1458h156v-293h387q201 0 325.5 -117.5t124.5 -312.5t-125 -311.5t-325 -116.5h-387v-307h-156zM367 446h372q141 0 225.5 74t84.5 215t-84 215t-226 74h-372v-578z" />
<glyph unicode="&#xdf;" horiz-adv-x="1138" d="M184 0v1073q0 190 111 295t301 105q174 0 278 -82q117 -90 117 -258q0 -160 -129 -244q74 -39 101.5 -93.5t27.5 -152.5v-354q0 -141 -80 -215t-211 -74h-110v127h82q72 0 122 41t50 137v346q0 84 -43 127t-121 43h-90v123h74q80 0 130 50t50 136q0 94 -63.5 153.5 t-192.5 59.5q-254 0 -254 -276v-1067h-150z" />
<glyph unicode="&#xe0;" horiz-adv-x="1077" d="M104 285q0 135 91.5 212.5t257.5 77.5h303v97q0 221 -258 221q-172 0 -254 -115l-101 92q66 84 152 119q78 31 205 31q403 0 403 -336v-684h-147v96q-109 -109 -291 -108q-195 0 -285 92q-76 78 -76 205zM248 287q0 -172 231 -172q156 0 226 67q51 49 51 174v109h-283 q-225 0 -225 -178zM260 1530h176l180 -313h-135z" />
<glyph unicode="&#xe1;" horiz-adv-x="1077" d="M104 285q0 135 91.5 212.5t257.5 77.5h303v97q0 221 -258 221q-172 0 -254 -115l-101 92q66 84 152 119q78 31 205 31q403 0 403 -336v-684h-147v96q-109 -109 -291 -108q-195 0 -285 92q-76 78 -76 205zM248 287q0 -172 231 -172q156 0 226 67q51 49 51 174v109h-283 q-225 0 -225 -178zM416 1217l180 313h176l-221 -313h-135z" />
<glyph unicode="&#xe2;" horiz-adv-x="1077" d="M104 285q0 135 91.5 212.5t257.5 77.5h303v97q0 221 -258 221q-172 0 -254 -115l-101 92q66 84 152 119q78 31 205 31q403 0 403 -336v-684h-147v96q-109 -109 -291 -108q-195 0 -285 92q-76 78 -76 205zM190 1217l256 313h140l256 -313h-142l-184 213l-184 -213h-142z M248 287q0 -172 231 -172q156 0 226 67q51 49 51 174v109h-283q-225 0 -225 -178z" />
<glyph unicode="&#xe3;" horiz-adv-x="1077" d="M104 285q0 135 91.5 212.5t257.5 77.5h303v97q0 221 -258 221q-172 0 -254 -115l-101 92q66 84 152 119q78 31 205 31q403 0 403 -336v-684h-147v96q-109 -109 -291 -108q-195 0 -285 92q-76 78 -76 205zM186 1343q104 104 195 105q66 0 145 -49q68 -41 115 -41 q55 0 121 65l76 -73q-104 -104 -195 -105q-63 0 -145 47q-74 43 -115 43q-55 0 -121 -65zM248 287q0 -172 231 -172q156 0 226 67q51 49 51 174v109h-283q-225 0 -225 -178z" />
<glyph unicode="&#xe4;" horiz-adv-x="1077" d="M104 285q0 135 91.5 212.5t257.5 77.5h303v97q0 221 -258 221q-172 0 -254 -115l-101 92q66 84 152 119q78 31 205 31q403 0 403 -336v-684h-147v96q-109 -109 -291 -108q-195 0 -285 92q-76 78 -76 205zM207 1321q0 39 26.5 66.5t65.5 27.5t65.5 -27.5t26.5 -66.5 t-26.5 -65.5t-65.5 -26.5t-65.5 26.5t-26.5 65.5zM248 287q0 -172 231 -172q156 0 226 67q51 49 51 174v109h-283q-225 0 -225 -178zM641 1321q0 39 26.5 66.5t65.5 27.5t65.5 -27.5t26.5 -66.5t-26.5 -65.5t-65.5 -26.5t-65.5 26.5t-26.5 65.5z" />
<glyph unicode="&#xe5;" horiz-adv-x="1077" d="M104 285q0 135 91.5 212.5t257.5 77.5h303v97q0 221 -258 221q-172 0 -254 -115l-101 92q66 84 152 119q78 31 205 31q403 0 403 -336v-684h-147v96q-109 -109 -291 -108q-195 0 -285 92q-76 78 -76 205zM248 287q0 -172 231 -172q156 0 226 67q51 49 51 174v109h-283 q-225 0 -225 -178zM274 1407q0 100 71 171t171 71t171 -71t71 -171t-71 -172t-171 -72t-171 72t-71 172zM375 1407q0 -57 42 -99t99 -42q59 0 100 42t41 99t-41 98t-100 41t-100 -41t-41 -98z" />
<glyph unicode="&#xe6;" horiz-adv-x="1710" d="M104 285q0 135 91.5 212.5t257.5 77.5h303v97q0 221 -258 221q-172 0 -254 -115l-101 92q66 84 152 119q78 31 205 31q270 0 354 -158q106 158 315 158q195 0 304.5 -131t109.5 -357v-67h-682q0 -166 78 -257t221 -91q147 0 262 114l103 -88q-156 -156 -373 -155 q-250 0 -358 174q-68 -96 -152 -135t-217 -39q-195 0 -285 92q-76 78 -76 205zM248 287q0 -172 231 -172q156 0 226 67q51 49 51 174v109h-283q-225 0 -225 -178zM901 575h535q-6 106 -31 168q-63 152 -236 152q-172 0 -235 -152q-29 -66 -33 -168z" />
<glyph unicode="&#xe7;" horiz-adv-x="1011" d="M129 504q0 250 129 387q119 129 317 129q106 0 180 -33t152 -117l-100 -94q-102 113 -232 113q-152 0 -233 -115q-66 -92 -66 -270t66 -271q82 -115 233 -114q127 0 232 114l100 -96q-78 -84 -151.5 -116.5t-180.5 -32.5q-199 0 -317 129q-129 137 -129 387zM358 -442 l146 305h137l-121 -305h-162z" />
<glyph unicode="&#xe8;" d="M129 504q0 244 110.5 380t303.5 136q195 0 304 -131t109 -357v-67h-680q0 -166 77 -257t220 -91q150 0 265 114l100 -88q-82 -82 -158 -116q-88 -39 -211 -39q-207 0 -319 125q-121 131 -121 391zM276 575h533q-6 106 -31 168q-63 152 -235 152t-236 -152 q-25 -61 -31 -168zM293 1530h176l180 -313h-135z" />
<glyph unicode="&#xe9;" d="M129 504q0 244 110.5 380t303.5 136q195 0 304 -131t109 -357v-67h-680q0 -166 77 -257t220 -91q150 0 265 114l100 -88q-82 -82 -158 -116q-88 -39 -211 -39q-207 0 -319 125q-121 131 -121 391zM276 575h533q-6 106 -31 168q-63 152 -235 152t-236 -152 q-25 -61 -31 -168zM449 1217l180 313h176l-221 -313h-135z" />
<glyph unicode="&#xea;" d="M129 504q0 244 110.5 380t303.5 136q195 0 304 -131t109 -357v-67h-680q0 -166 77 -257t220 -91q150 0 265 114l100 -88q-82 -82 -158 -116q-88 -39 -211 -39q-207 0 -319 125q-121 131 -121 391zM223 1217l256 313h140l256 -313h-142l-184 213l-184 -213h-142zM276 575 h533q-6 106 -31 168q-63 152 -235 152t-236 -152q-25 -61 -31 -168z" />
<glyph unicode="&#xeb;" d="M129 504q0 244 110.5 380t303.5 136q195 0 304 -131t109 -357v-67h-680q0 -166 77 -257t220 -91q150 0 265 114l100 -88q-82 -82 -158 -116q-88 -39 -211 -39q-207 0 -319 125q-121 131 -121 391zM240 1321q0 39 26.5 66.5t65.5 27.5t65.5 -27.5t26.5 -66.5t-26.5 -65.5 t-65.5 -26.5t-65.5 26.5t-26.5 65.5zM276 575h533q-6 106 -31 168q-63 152 -235 152t-236 -152q-25 -61 -31 -168zM674 1321q0 39 26.5 66.5t65.5 27.5t65.5 -27.5t26.5 -66.5t-26.5 -65.5t-65.5 -26.5t-65.5 26.5t-26.5 65.5z" />
<glyph unicode="&#xec;" horiz-adv-x="518" d="M37 1530h176l180 -313h-135zM184 0v1008h148v-1008h-148z" />
<glyph unicode="&#xed;" horiz-adv-x="518" d="M136 1217l180 313h176l-221 -313h-135zM184 0v1008h148v-1008h-148z" />
<glyph unicode="&#xee;" horiz-adv-x="518" d="M-68 1217l256 313h140l256 -313h-142l-184 213l-184 -213h-142zM184 0v1008h148v-1008h-148z" />
<glyph unicode="&#xef;" horiz-adv-x="518" d="M-55 1321q0 39 26.5 66.5t65.5 27.5t65.5 -27.5t26.5 -66.5t-26.5 -65.5t-65.5 -26.5t-65.5 26.5t-26.5 65.5zM184 0v1008h148v-1008h-148zM379 1321q0 39 26.5 66.5t65.5 27.5t65.5 -27.5t26.5 -66.5t-26.5 -65.5t-65.5 -26.5t-65.5 26.5t-26.5 65.5z" />
<glyph unicode="&#xf0;" d="M135 500q0 276 121 399q96 98 250 107q96 6 153 -21l-118 203h-238v106h180l-96 168h154l96 -168h168v-106h-111l129 -227q76 -133 102.5 -225.5t26.5 -235.5q0 -274 -123 -400q-111 -113 -286 -112q-176 0 -287 112q-121 123 -121 400zM283 500q0 -227 79 -307 q74 -74 181 -74q109 0 185.5 77t76.5 304q0 229 -80 309q-74 74 -182 74q-106 0 -181 -74q-80 -80 -79 -309z" />
<glyph unicode="&#xf1;" horiz-adv-x="1153" d="M184 0v1008h148v-111q109 123 282 123q162 0 258 -94q104 -102 105 -281v-645h-148v621q0 268 -247 268q-117 0 -183.5 -69.5t-66.5 -198.5v-621h-148zM254 1343q104 104 195 105q66 0 145 -49q68 -41 115 -41q55 0 121 65l76 -73q-104 -104 -195 -105q-63 0 -145 47 q-74 43 -115 43q-55 0 -121 -65z" />
<glyph unicode="&#xf2;" d="M131 504q0 276 123 401q113 115 289 115t288 -115q123 -125 123 -401t-123 -402q-113 -115 -288 -114q-176 0 -289 114q-123 125 -123 402zM266 1530h176l180 -313h-135zM279 504q0 -229 81 -311q74 -74 183 -74q111 0 187.5 77t76.5 308t-80 311q-74 74 -184 74 q-109 0 -183 -74q-82 -82 -81 -311z" />
<glyph unicode="&#xf3;" d="M131 504q0 276 123 401q113 115 289 115t288 -115q123 -125 123 -401t-123 -402q-113 -115 -288 -114q-176 0 -289 114q-123 125 -123 402zM279 504q0 -229 81 -311q74 -74 183 -74q111 0 187.5 77t76.5 308t-80 311q-74 74 -184 74q-109 0 -183 -74q-82 -82 -81 -311z M443 1217l180 313h176l-221 -313h-135z" />
<glyph unicode="&#xf4;" d="M131 504q0 276 123 401q113 115 289 115t288 -115q123 -125 123 -401t-123 -402q-113 -115 -288 -114q-176 0 -289 114q-123 125 -123 402zM217 1217l256 313h140l256 -313h-142l-184 213l-184 -213h-142zM279 504q0 -229 81 -311q74 -74 183 -74q111 0 187.5 77 t76.5 308t-80 311q-74 74 -184 74q-109 0 -183 -74q-82 -82 -81 -311z" />
<glyph unicode="&#xf5;" d="M131 504q0 276 123 401q113 115 289 115t288 -115q123 -125 123 -401t-123 -402q-113 -115 -288 -114q-176 0 -289 114q-123 125 -123 402zM213 1343q104 104 195 105q66 0 145 -49q68 -41 115 -41q55 0 121 65l76 -73q-104 -104 -195 -105q-63 0 -145 47q-74 43 -115 43 q-55 0 -121 -65zM279 504q0 -229 81 -311q74 -74 183 -74q111 0 187.5 77t76.5 308t-80 311q-74 74 -184 74q-109 0 -183 -74q-82 -82 -81 -311z" />
<glyph unicode="&#xf6;" d="M131 504q0 276 123 401q113 115 289 115t288 -115q123 -125 123 -401t-123 -402q-113 -115 -288 -114q-176 0 -289 114q-123 125 -123 402zM234 1321q0 39 26.5 66.5t65.5 27.5t65.5 -27.5t26.5 -66.5t-26.5 -65.5t-65.5 -26.5t-65.5 26.5t-26.5 65.5zM279 504 q0 -229 81 -311q74 -74 183 -74q111 0 187.5 77t76.5 308t-80 311q-74 74 -184 74q-109 0 -183 -74q-82 -82 -81 -311zM668 1321q0 39 26.5 66.5t65.5 27.5t65.5 -27.5t26.5 -66.5t-26.5 -65.5t-65.5 -26.5t-65.5 26.5t-26.5 65.5z" />
<glyph unicode="&#xf7;" horiz-adv-x="1069" d="M104 483v138h861v-138h-861zM418 184q0 47 34.5 82t82.5 35q47 0 81.5 -35t34.5 -82t-34.5 -81.5t-81.5 -34.5t-82 34.5t-35 81.5zM418 920q0 47 34.5 81.5t82.5 34.5q47 0 81.5 -34.5t34.5 -81.5t-34.5 -82t-81.5 -35t-82 34.5t-35 82.5z" />
<glyph unicode="&#xf8;" d="M131 504q0 276 123 401q113 115 289 115q121 0 215 -55l80 133h114l-116 -197q118 -123 118 -397q0 -276 -123 -402q-113 -115 -288 -114q-121 0 -215 55l-78 -133h-117l117 196q-119 123 -119 398zM279 504q0 -188 51 -273l360 615q-61 43 -147 43q-109 0 -183 -74 q-82 -82 -81 -311zM395 164q63 -45 148 -45q111 0 187.5 77t76.5 308q0 193 -49 272z" />
<glyph unicode="&#xf9;" horiz-adv-x="1150" d="M174 365v643h148v-621q0 -268 245 -268q117 0 184.5 69.5t67.5 198.5v621h148v-1008h-146v113q-109 -125 -284 -125q-164 0 -261 94q-102 100 -102 283zM313 1530h176l180 -313h-135z" />
<glyph unicode="&#xfa;" horiz-adv-x="1150" d="M174 365v643h148v-621q0 -268 245 -268q117 0 184.5 69.5t67.5 198.5v621h148v-1008h-146v113q-109 -125 -284 -125q-164 0 -261 94q-102 100 -102 283zM469 1217l180 313h176l-221 -313h-135z" />
<glyph unicode="&#xfb;" horiz-adv-x="1150" d="M174 365v643h148v-621q0 -268 245 -268q117 0 184.5 69.5t67.5 198.5v621h148v-1008h-146v113q-109 -125 -284 -125q-164 0 -261 94q-102 100 -102 283zM243 1217l256 313h140l256 -313h-142l-184 213l-184 -213h-142z" />
<glyph unicode="&#xfc;" horiz-adv-x="1150" d="M174 365v643h148v-621q0 -268 245 -268q117 0 184.5 69.5t67.5 198.5v621h148v-1008h-146v113q-109 -125 -284 -125q-164 0 -261 94q-102 100 -102 283zM260 1321q0 39 26.5 66.5t65.5 27.5t65.5 -27.5t26.5 -66.5t-26.5 -65.5t-65.5 -26.5t-65.5 26.5t-26.5 65.5z M694 1321q0 39 26.5 66.5t65.5 27.5t65.5 -27.5t26.5 -66.5t-26.5 -65.5t-65.5 -26.5t-65.5 26.5t-26.5 65.5z" />
<glyph unicode="&#xfd;" horiz-adv-x="915" d="M23 1008h159l277 -809l274 809h160l-459 -1252q-29 -78 -72 -118q-74 -70 -196 -70h-64v131h45q74 0 107 26.5t59 98.5l72 196zM357 1217l180 313h176l-221 -313h-135z" />
<glyph unicode="&#xfe;" horiz-adv-x="1118" d="M184 -451v1909h148v-567q100 129 284 129q158 0 246 -88q123 -123 123 -428t-123 -428q-88 -88 -246 -88q-182 0 -284 131v-570h-148zM332 504q0 -178 45 -266q59 -119 209 -119t209 119q43 88 43 266t-43 266q-59 119 -209 119t-209 -119q-45 -88 -45 -266z" />
<glyph unicode="&#xff;" horiz-adv-x="915" d="M23 1008h159l277 -809l274 809h160l-459 -1252q-29 -78 -72 -118q-74 -70 -196 -70h-64v131h45q74 0 107 26.5t59 98.5l72 196zM148 1321q0 39 26.5 66.5t65.5 27.5t65.5 -27.5t26.5 -66.5t-26.5 -65.5t-65.5 -26.5t-65.5 26.5t-26.5 65.5zM582 1321q0 39 26.5 66.5 t65.5 27.5t65.5 -27.5t26.5 -66.5t-26.5 -65.5t-65.5 -26.5t-65.5 26.5t-26.5 65.5z" />
<glyph unicode="&#x152;" horiz-adv-x="2025" d="M156 729q0 266 18 361q25 135 119 229q152 152 371 151q221 0 354 -163v151h889v-137h-733q0 -80 2 -260v-260h622v-131h-622v-267q-2 -184 -2 -266h737v-137h-893v152q-133 -164 -354 -164q-219 0 -371 151q-94 94 -119 230q-18 94 -18 360zM311 729q0 -240 17 -328 q20 -102 86 -170q102 -104 252 -104t252 104q66 68 83 170q17 86 17 328t-17 328q-18 102 -83 170q-102 104 -252 104t-252 -104q-66 -68 -86 -170q-16 -88 -17 -328z" />
<glyph unicode="&#x153;" horiz-adv-x="1763" d="M131 504q0 276 123 401q113 115 289 115q244 0 344 -195q104 195 334 195q195 0 304 -131t109 -357v-67h-680q0 -166 77 -257t220 -91q150 0 265 114l100 -88q-82 -82 -158 -116q-88 -39 -211 -39q-254 0 -362 194q-100 -195 -342 -194q-176 0 -289 114 q-123 125 -123 402zM279 504q0 -229 81 -311q74 -74 183 -74q111 0 187.5 77t76.5 308t-80 311q-74 74 -184 74q-109 0 -183 -74q-82 -82 -81 -311zM954 575h535q-4 102 -33 168q-63 152 -235 152t-236 -152q-25 -61 -31 -168z" />
<glyph unicode="&#x178;" horiz-adv-x="1052" d="M16 1458h168l344 -698l340 698h168l-430 -856v-602h-155v602zM217 1704q0 39 26.5 66.5t65.5 27.5t65.5 -27.5t26.5 -66.5t-26.5 -65.5t-65.5 -26.5t-65.5 26.5t-26.5 65.5zM651 1704q0 39 26.5 66.5t65.5 27.5t65.5 -27.5t26.5 -66.5t-26.5 -65.5t-65.5 -26.5 t-65.5 26.5t-26.5 65.5z" />
<glyph unicode="&#x2c6;" horiz-adv-x="1024" d="M186 1217l256 313h140l256 -313h-142l-184 213l-184 -213h-142z" />
<glyph unicode="&#x2dc;" horiz-adv-x="1024" d="M182 1343q104 104 195 105q66 0 145 -49q68 -41 115 -41q55 0 121 65l76 -73q-104 -104 -195 -105q-63 0 -145 47q-74 43 -115 43q-55 0 -121 -65z" />
<glyph unicode="&#x2000;" horiz-adv-x="1009" />
<glyph unicode="&#x2001;" horiz-adv-x="2018" />
<glyph unicode="&#x2002;" horiz-adv-x="1009" />
<glyph unicode="&#x2003;" horiz-adv-x="2018" />
<glyph unicode="&#x2004;" horiz-adv-x="672" />
<glyph unicode="&#x2005;" horiz-adv-x="504" />
<glyph unicode="&#x2006;" horiz-adv-x="336" />
<glyph unicode="&#x2007;" horiz-adv-x="336" />
<glyph unicode="&#x2008;" horiz-adv-x="252" />
<glyph unicode="&#x2009;" horiz-adv-x="403" />
<glyph unicode="&#x200a;" horiz-adv-x="112" />
<glyph unicode="&#x2010;" horiz-adv-x="872" d="M156 483v138h561v-138h-561z" />
<glyph unicode="&#x2011;" horiz-adv-x="872" d="M156 483v138h561v-138h-561z" />
<glyph unicode="&#x2012;" horiz-adv-x="872" d="M156 483v138h561v-138h-561z" />
<glyph unicode="&#x2013;" horiz-adv-x="1069" d="M106 483v138h857v-138h-857z" />
<glyph unicode="&#x2014;" horiz-adv-x="1871" d="M156 483v140h1560v-140h-1560z" />
<glyph unicode="&#x2018;" horiz-adv-x="538" d="M180 1286v172l178 162v-334h-178z" />
<glyph unicode="&#x2019;" horiz-adv-x="538" d="M180 1124v334h178v-172z" />
<glyph unicode="&#x201a;" horiz-adv-x="538" d="M180 -162v334h178v-172z" />
<glyph unicode="&#x201c;" horiz-adv-x="888" d="M180 1286v172l178 162v-334h-178zM528 1286v172l181 162v-334h-181z" />
<glyph unicode="&#x201d;" horiz-adv-x="888" d="M180 1124v334h178v-172zM528 1124v334h181v-172z" />
<glyph unicode="&#x201e;" horiz-adv-x="888" d="M180 -162v334h178v-172zM528 -162v334h181v-172z" />
<glyph unicode="&#x2022;" horiz-adv-x="1089" d="M211 684q0 139 98.5 236.5t235.5 97.5q139 0 236.5 -97.5t97.5 -236.5q0 -137 -97.5 -235.5t-236.5 -98.5q-137 0 -235.5 98.5t-98.5 235.5z" />
<glyph unicode="&#x2026;" horiz-adv-x="1550" d="M162 111q0 47 34.5 81.5t82.5 34.5q47 0 81.5 -34.5t34.5 -81.5t-34.5 -82t-81.5 -35t-82 34.5t-35 82.5zM657 111q0 47 35 81.5t82 34.5t82 -34.5t35 -81.5t-35 -82t-82 -35t-82 34.5t-35 82.5zM1153 111q0 47 35 81.5t82 34.5t81.5 -34.5t34.5 -81.5t-34.5 -82 t-81.5 -35t-82 34.5t-35 82.5z" />
<glyph unicode="&#x202f;" horiz-adv-x="403" />
<glyph unicode="&#x2039;" horiz-adv-x="671" d="M82 549l430 430v-184l-246 -246l246 -248v-182z" />
<glyph unicode="&#x203a;" horiz-adv-x="671" d="M160 119v182l248 248l-248 246v184l430 -430z" />
<glyph unicode="&#x205f;" horiz-adv-x="504" />
<glyph unicode="&#x2122;" horiz-adv-x="1718" d="M74 1350v108h604v-108h-244v-766h-119v766h-241zM831 584v874h119l267 -530l266 530h116v-874h-116v630l-209 -413h-115l-209 413v-630h-119z" />
<glyph unicode="&#x25fc;" horiz-adv-x="1003" d="M0 0v1004h1004v-1004h-1004z" />
</font>
</defs>
</svg>
