<?xml version="1.0" standalone="no"?>
<!DOCTYPE svg PUBLIC "-//W3C//DTD SVG 1.1//EN" "http://www.w3.org/Graphics/SVG/1.1/DTD/svg11.dtd" >
<svg xmlns="http://www.w3.org/2000/svg" xmlns:xlink="http://www.w3.org/1999/xlink" version="1.1">
<metadata></metadata>
<defs>
<font id="dinbold" horiz-adv-x="1112" >
<font-face units-per-em="2048" ascent="1638" descent="-410" />
<missing-glyph horiz-adv-x="475" />
<glyph horiz-adv-x="0" />
<glyph unicode="&#xd;" horiz-adv-x="475" />
<glyph unicode=" "  horiz-adv-x="475" />
<glyph unicode="&#x09;" horiz-adv-x="475" />
<glyph unicode="&#xa0;" horiz-adv-x="475" />
<glyph unicode="!" horiz-adv-x="710" d="M229 1458h328l-63 -1001h-201zM252 0v272h283v-272h-283z" />
<glyph unicode="&#x22;" horiz-adv-x="950" d="M139 1026v432h250v-432h-250zM561 1026v432h248v-432h-248z" />
<glyph unicode="#" horiz-adv-x="1415" d="M123 389v250h182l33 221h-143v248h182l57 362h281l-58 -362h238l57 362h279l-55 -362h141v-248h-182l-33 -221h141v-250h-182l-62 -389h-280l63 389h-237l-62 -389h-280l61 389h-141zM584 639h237l33 221h-236z" />
<glyph unicode="$" horiz-adv-x="1267" d="M39 180l184 185q117 -117 326 -123v370l-66 9q-182 23 -284.5 125t-102.5 282q0 178 114 298t312 140v185h207v-183q246 -14 404 -168l-181 -178q-90 86 -252 99v-357l78 -12q188 -31 279 -115q112 -106 112 -307q0 -182 -125 -299q-117 -111 -315 -135v-229h-207v221 q-303 10 -483 192zM371 1038q0 -63 45 -106t133 -55v342q-178 -25 -178 -181zM700 246q191 22 191 176q0 80 -45 123q-39 37 -146 53v-352z" />
<glyph unicode="%" horiz-adv-x="1736" d="M106 987v203q0 133 89 209q82 72 208 71q127 0 212 -73.5t85 -206.5v-203q0 -133 -85 -206.5t-212 -73.5t-208 71q-88 76 -89 209zM299 995q0 -117 104 -116q105 -1 105 116v187q0 117 -105 116q-104 0 -104 -116v-187zM420 0l690 1458h209l-690 -1458h-209zM1036 268 v203q0 133 88 209q82 72 209 72t212 -74t85 -207v-203q0 -133 -85 -206.5t-212 -73.5t-209 71q-88 76 -88 209zM1229 276q0 -117 104 -116q105 -1 105 116v187q0 117 -105 117q-104 0 -104 -117v-187z" />
<glyph unicode="&#x26;" horiz-adv-x="1476" d="M123 430q0 217 262 391q-145 166 -145 309q0 152 104.5 246t284.5 94q170 0 271 -96t101 -248q0 -145 -149 -254q-33 -25 -104 -75l245 -291q68 90 74 256h252q-16 -297 -156 -453l262 -309h-338l-106 127q-82 -63 -135 -90q-104 -49 -242 -49q-238 0 -359.5 116.5 t-121.5 325.5zM381 434q0 -90 63.5 -147.5t157.5 -57.5q119 0 217 86l-291 342q-147 -102 -147 -223zM508 1124q0 -51 96 -163q18 12 62 40q84 55 84 123q0 51 -33 85t-88 34q-121 0 -121 -119z" />
<glyph unicode="'" horiz-adv-x="530" d="M139 1026v432h252v-432h-252z" />
<glyph unicode="(" horiz-adv-x="688" d="M164 283v893q0 172 53 264q43 74 180 211l178 -178q-49 -49 -63 -66q-29 -33 -51 -72q-31 -53 -31 -172v-868q0 -119 30.5 -172t114.5 -137l-178 -179q-74 74 -98 101q-51 57 -82 110q-53 92 -53 265z" />
<glyph unicode=")" horiz-adv-x="688" d="M111 -12l63 63q29 33 51 72q31 53 31 172v868q0 119 -29.5 170t-115.5 137l180 181q74 -74 98 -101q51 -57 82 -110q53 -92 53 -264v-893q0 -172 -53 -265q-43 -74 -180 -211z" />
<glyph unicode="*" horiz-adv-x="1011" d="M113 942l225 119l-225 119l92 163l217 -137l-10 256h188l-8 -256l215 137l94 -163l-227 -119l227 -119l-94 -162l-215 135l8 -256h-188l10 256l-217 -135z" />
<glyph unicode="+" d="M102 442v250h330v328h250v-328h328v-250h-328v-327h-250v327h-330z" />
<glyph unicode="," horiz-adv-x="571" d="M139 291h293v-404l-293 -225v629z" />
<glyph unicode="-" horiz-adv-x="872" d="M121 461v248h631v-248h-631z" />
<glyph unicode="." horiz-adv-x="583" d="M139 0v303h305v-303h-305z" />
<glyph unicode="/" horiz-adv-x="825" d="M0 -152l584 1762h250l-584 -1762h-250z" />
<glyph unicode="0" d="M113 422v614q0 201 133 322q125 113 311 112q186 0 311 -112q131 -121 131 -322v-614q0 -201 -131 -322q-125 -113 -311 -112q-186 0 -311 112q-133 121 -133 322zM379 424q0 -90 49 -143.5t129 -53.5t128 53.5t48 143.5v608q0 92 -48 145.5t-128 53.5t-129 -54.5 t-49 -144.5v-608z" />
<glyph unicode="1" d="M211 913v287l297 258h266v-1458h-266v1171z" />
<glyph unicode="2" d="M121 0v240l545 632q76 88 75 177q0 82 -46 132t-130 50q-178 0 -178 -187h-266q0 195 129 314q123 113 315 112q197 0 320 -114.5t123 -308.5q0 -98 -41 -177q-29 -59 -115 -157l-408 -473h564v-240h-887z" />
<glyph unicode="3" d="M86 418h266q2 -94 62 -144q53 -47 137 -47q88 0 142.5 53.5t54.5 149.5q0 92 -54.5 146.5t-150.5 54.5h-39v231h39q184 0 184 182q0 88 -51 137.5t-127 49.5t-126 -47t-54 -129h-267q4 190 131 302.5t316 112.5q195 0 319.5 -116.5t124.5 -300.5q0 -209 -168 -299 q189 -101 189 -332q0 -209 -137 -326q-127 -109 -326 -108q-195 0 -320 100q-143 115 -145 330z" />
<glyph unicode="4" d="M63 207v252l500 999h291l-500 -999h305v272h256v-272h134v-252h-134v-207h-256v207h-596z" />
<glyph unicode="5" d="M117 408h266q23 -180 178 -181q80 0 127 47q57 57 57 218q0 262 -178 262q-137 0 -176 -119h-244v823h832v-239h-590v-314q78 74 219 74q174 0 273 -98q131 -131 131 -389q0 -133 -25 -213q-29 -96 -104 -173q-119 -119 -322 -118q-209 0 -325 116q-102 102 -119 304z " />
<glyph unicode="6" d="M98 438q0 137 123 389l307 631h291l-303 -602q45 18 109 18q156 0 266 -114q117 -123 117 -318q0 -211 -128 -332.5t-327 -121.5t-324 116q-131 123 -131 334zM365 440q0 -98 52 -155.5t136 -57.5t136 57.5t52 155.5q0 96 -52 154.5t-136 58.5t-136 -57t-52 -156z" />
<glyph unicode="7" d="M102 989v469h928v-239l-473 -1219h-289l473 1219h-385v-230h-254z" />
<glyph unicode="8" d="M90 424q0 207 182 328q-164 115 -163 303q0 188 133 305q127 111 315 110q188 0 315 -110q131 -117 132 -305q0 -188 -164 -303q184 -123 184 -328t-137 -324q-127 -113 -330 -112q-203 0 -330 112q-137 119 -137 324zM356 428q0 -84 58.5 -142.5t142.5 -58.5t142.5 58.5 t58.5 142.5t-58.5 143.5t-142.5 59.5t-142.5 -59.5t-58.5 -143.5zM375 1047q0 -80 52 -132.5t130 -52.5t129 52.5t51 132.5q0 78 -51 131t-129 53t-130 -53.5t-52 -130.5z" />
<glyph unicode="9" d="M104 1016q0 211 132 336q125 119 323 118q199 0 324 -116q131 -123 131 -334q0 -143 -121 -389l-309 -631h-289l303 602q-45 -18 -109 -18q-156 0 -266 114q-119 123 -119 318zM371 1018q0 -96 52 -154.5t136 -58.5t136.5 57.5t52.5 155.5t-52.5 155.5t-136.5 57.5 t-136 -57.5t-52 -155.5z" />
<glyph unicode=":" horiz-adv-x="632" d="M190 0v303h304v-303h-304zM190 555v303h304v-303h-304z" />
<glyph unicode=";" horiz-adv-x="632" d="M190 555v303h304v-303h-304zM197 291h290v-404l-290 -225v629z" />
<glyph unicode="&#x3c;" horiz-adv-x="2103" d="M102 584l789 788h336l-668 -661h1440v-252h-1440l668 -664h-336z" />
<glyph unicode="=" d="M102 238v249h908v-249h-908zM102 682v250h908v-250h-908z" />
<glyph unicode="&#x3e;" horiz-adv-x="2103" d="M102 459v252h1442l-667 661h335l789 -788l-789 -789h-335l667 664h-1442z" />
<glyph unicode="?" horiz-adv-x="1071" d="M135 1061q0 186 127 301q119 109 303 108q182 0 303 -106q129 -115 129 -303q0 -123 -100 -256l-152 -201q-37 -49 -36 -104v-43h-267v61q0 113 78 213l152 195q59 76 59 137q0 74 -45 121t-121 47q-78 0 -121 -48t-43 -122h-266zM434 0v272h283v-272h-283z" />
<glyph unicode="@" horiz-adv-x="1552" d="M117 342v612q0 260 126 386t386 126h295q260 0 385 -124.5t125 -387.5v-960l-248 6v94q-98 -106 -246 -106q-162 0 -258 102q-63 70 -84 180q-12 66 -12 203q0 135 12 201q18 109 82 178q94 104 258 104q150 0 242 -100v92q0 137 -72 209t-205 72h-254q-133 0 -204.5 -72 t-71.5 -209v-592q0 -76 19.5 -116.5t70.5 -85.5l-184 -185q-90 82 -125 156q-37 82 -37 217zM842 473q0 -264 168 -264q170 0 170 264q0 262 -170 262q-168 0 -168 -262z" />
<glyph unicode="A" horiz-adv-x="1306" d="M10 0l531 1458h223l532 -1458h-297l-86 258h-518l-88 -258h-297zM475 498h363l-179 530z" />
<glyph unicode="B" horiz-adv-x="1347" d="M170 0v1458h586q211 0 330.5 -110.5t119.5 -298.5q0 -111 -61 -199q-51 -70 -119 -102q201 -95 201 -328q0 -199 -123 -309.5t-324 -110.5h-610zM455 254h297q92 0 141 51t49 129t-49 128t-141 50h-297v-358zM455 868h278q90 0 139.5 46t49.5 122t-49.5 122t-139.5 46 h-278v-336z" />
<glyph unicode="C" horiz-adv-x="1269" d="M121 729q0 240 16 330q29 154 127 252q159 159 390 159h3q211 0 355.5 -118.5t181.5 -341.5h-289q-51 207 -246 207q-129 0 -198 -97q-55 -78 -55 -391q0 -170 4 -213q14 -137 67 -199q67 -75 179 -75h3q195 0 246 207h289q-37 -223 -186 -345q-140 -116 -347 -116h-4 q-233 0 -393 159q-98 98 -127 252q-16 90 -16 330z" />
<glyph unicode="D" horiz-adv-x="1349" d="M170 0v1458h526q246 0 385 -139q109 -109 136 -270q12 -74 12 -314q0 -244 -12 -319q-27 -168 -136 -277q-139 -139 -385 -139h-526zM455 254h215q139 0 213 90q39 47 51 137q10 76 10 254q0 176 -10 248q-12 84 -51 131q-74 90 -213 90h-215v-950z" />
<glyph unicode="E" horiz-adv-x="1239" d="M170 0v1458h960v-254h-675v-342h575v-254h-575v-354h675v-254h-960z" />
<glyph unicode="F" horiz-adv-x="1208" d="M170 0v1458h960v-254h-675v-358h575v-254h-575v-592h-285z" />
<glyph unicode="G" horiz-adv-x="1327" d="M121 729q0 240 16 330q29 154 127 252q159 159 390 159h3q238 0 387 -141q129 -125 162 -325h-286q-51 213 -263 213q-113 0 -182 -78q-53 -61 -65 -197q-4 -37 -4 -213t4 -213q12 -137 65 -199q67 -75 179 -75h3q129 0 203 82q66 72 66 194v55h-269v238h551v-213 q0 -299 -139 -444q-160 -166 -412 -166q-233 0 -393 159q-98 98 -127 252q-16 90 -16 330z" />
<glyph unicode="H" horiz-adv-x="1402" d="M170 0v1458h285v-596h493v596h285v-1458h-285v610h-493v-610h-285z" />
<glyph unicode="I" horiz-adv-x="624" d="M170 0v1458h285v-1458h-285z" />
<glyph unicode="J" horiz-adv-x="1046" d="M6 137l189 187q82 -82 186 -82q229 0 229 250v966h285v-979q0 -231 -156 -366q-143 -125 -358 -125q-225 0 -375 149z" />
<glyph unicode="K" horiz-adv-x="1361" d="M170 0v1458h285v-635l514 635h346l-484 -579l519 -879h-332l-375 664l-188 -226v-438h-285z" />
<glyph unicode="L" horiz-adv-x="1177" d="M170 0v1458h285v-1204h661v-254h-946z" />
<glyph unicode="M" horiz-adv-x="1660" d="M170 0v1458h281l380 -788l379 788h281v-1458h-285v850l-278 -553h-193l-280 553v-850h-285z" />
<glyph unicode="N" horiz-adv-x="1456" d="M170 0v1458h254l577 -893v893h285v-1458h-254l-577 895v-895h-285z" />
<glyph unicode="O" horiz-adv-x="1318" d="M121 729q0 240 16 330q29 154 127 252q159 159 392 159h3q233 0 394 -159q100 -100 127 -252q18 -92 18 -330t-18 -330q-27 -152 -127 -252q-159 -159 -391 -159h-3q-236 0 -395 159q-98 98 -127 252q-16 90 -16 330zM406 729q0 -176 4 -213q12 -135 65 -197 q69 -77 181 -77h3q127 0 199 98q55 76 55 389q0 168 -4 213q-12 135 -67 197q-70 78 -183 78q-115 0 -184 -78q-53 -61 -65 -197q-4 -37 -4 -213z" />
<glyph unicode="P" horiz-adv-x="1286" d="M170 0v1458h565q219 0 355 -135q127 -126 127 -319t-127 -320q-135 -135 -355 -135h-280v-549h-285zM455 805h266q96 0 153.5 54.5t57.5 144.5t-57.5 145t-153.5 55h-266v-399z" />
<glyph unicode="Q" horiz-adv-x="1316" d="M121 729q0 240 16 330q29 154 127 252q159 159 392 159h3q233 0 394 -159q100 -100 127 -252q18 -92 18 -330q0 -209 -10 -289q-18 -137 -80 -227l125 -125l-150 -149l-129 129q-123 -80 -295 -80q-236 0 -395 159q-98 98 -127 252q-16 90 -16 330zM406 729 q0 -176 4 -213q12 -135 65 -197q69 -77 181 -77h3q55 0 95 26l-127 125l151 150l109 -109q26 76 26 295q0 168 -4 213q-12 135 -67 197q-70 78 -183 78q-115 0 -184 -78q-53 -61 -65 -197q-4 -37 -4 -213z" />
<glyph unicode="R" horiz-adv-x="1339" d="M170 0v1458h571q217 0 349 -131q124 -124 124 -312q0 -148 -79 -253q-72 -92 -187 -133l326 -629h-330l-285 582h-204v-582h-285zM455 819h268q92 0 149.5 53.5t57.5 139.5t-57.5 139t-149.5 53h-268v-385z" />
<glyph unicode="S" horiz-adv-x="1210" d="M39 180l184 185q123 -123 352 -123q258 0 259 180q0 82 -43 122t-132 52l-176 25q-387 53 -387 407q0 199 137.5 320.5t370.5 121.5q295 0 471 -170l-180 -178q-104 100 -299 101q-109 0 -167 -52.5t-58 -132.5q0 -63 46 -106t132 -55l172 -25q186 -27 278 -113 q113 -106 113 -309q0 -207 -152.5 -324.5t-388.5 -117.5q-342 0 -532 192z" />
<glyph unicode="T" horiz-adv-x="1169" d="M61 1204v254h1047v-254h-381v-1204h-285v1204h-381z" />
<glyph unicode="U" horiz-adv-x="1368" d="M147 500v958h285v-948q0 -125 67.5 -196.5t184.5 -71.5t185.5 71.5t68.5 196.5v948h283v-958q0 -227 -154 -369.5t-383 -142.5t-383 142t-154 370z" />
<glyph unicode="V" horiz-adv-x="1189" d="M6 1458h295l293 -950l293 950h297l-484 -1458h-213z" />
<glyph unicode="W" horiz-adv-x="1816" d="M12 1458h297l226 -919l266 919h213l266 -919l227 919h297l-391 -1458h-237l-269 885l-268 -885h-238z" />
<glyph unicode="X" horiz-adv-x="1234" d="M10 0l453 748l-424 710h323l254 -471l256 471h322l-424 -710l455 -748h-326l-283 508l-280 -508h-326z" />
<glyph unicode="Y" horiz-adv-x="1171" d="M6 1458h309l273 -588l268 588h309l-438 -860v-598h-283v598z" />
<glyph unicode="Z" horiz-adv-x="1122" d="M82 0v229l623 975h-596v254h931v-225l-624 -979h624v-254h-958z" />
<glyph unicode="[" horiz-adv-x="774" d="M164 -152v1762h526v-240h-260v-1282h260v-240h-526z" />
<glyph unicode="\" horiz-adv-x="825" d="M0 1583h250l575 -1735h-250z" />
<glyph unicode="]" horiz-adv-x="774" d="M86 86h260v1286h-260v238h526v-1762h-526v238z" />
<glyph unicode="^" horiz-adv-x="1232" d="M129 797l365 676h245l365 -676h-279l-209 385l-208 -385h-279z" />
<glyph unicode="_" horiz-adv-x="1232" d="M0 -186h1233v-179h-1233v179z" />
<glyph unicode="`" horiz-adv-x="1024" d="M213 1585h281l131 -348h-179z" />
<glyph unicode="a" horiz-adv-x="1093" d="M74 324q0 135 93 222t271 87h252v53q0 168 -198 168q-129 0 -205 -88l-170 166q76 84 166 117q79 30 210 30h9q455 0 454 -377v-702h-260v92q-102 -102 -262 -102q-180 0 -270 92t-90 242zM483 207q137 0 183 67q24 37 24 119v58h-211q-149 0 -149 -119q0 -125 153 -125z " />
<glyph unicode="b" horiz-adv-x="1146" d="M150 0v1458h266v-485q96 106 258 106q164 0 260 -96q72 -72 94 -205q14 -81 14 -243q0 -164 -14 -246q-23 -133 -94 -205q-96 -96 -260 -96t-266 112v-100h-258zM416 535q0 -141 22 -203q41 -104 158 -105q117 0 158 105q22 62 22 203t-22 202q-41 102 -158 103 q-117 0 -158 -103q-22 -58 -22 -190v-12z" />
<glyph unicode="c" horiz-adv-x="983" d="M96 535q0 293 160 434q122 110 314 110h3q215 0 353 -143l-181 -180q-78 84 -172 84t-152.5 -72t-58.5 -233q0 -164 58.5 -236t152.5 -72t172 84l181 -178q-139 -145 -353 -145q-195 0 -317 110q-160 143 -160 437z" />
<glyph unicode="d" horiz-adv-x="1148" d="M104 535q0 162 15 243q23 133 94 205q96 96 260 96t260 -106v485h266v-1458h-260v100q-99 -112 -261 -112h-3q-166 0 -262 96q-72 72 -94 205q-14 82 -15 246zM371 535q0 -141 22 -203q41 -104 158 -105q111 0 151 88q31 68 31 220t-31 217q-41 88 -151 88 q-117 0 -158 -103q-22 -58 -22 -190v-12z" />
<glyph unicode="e" horiz-adv-x="1122" d="M96 535q0 256 129 403q125 141 336 141q217 0 344 -145q121 -139 121 -365v-118h-668q0 -106 62.5 -172t171.5 -66q141 0 242 100l161 -157q-88 -88 -172 -125q-96 -43 -233 -43q-494 0 -494 547zM358 633h406q-2 66 -25 115q-49 110 -176 110h-2q-129 0 -178 -110 q-23 -49 -25 -115z" />
<glyph unicode="f" horiz-adv-x="700" d="M72 834v202h110v133q0 125 74 209q86 96 238 97h151v-226h-104q-92 0 -92 -96v-117h196v-202h-196v-834h-267v834h-110z" />
<glyph unicode="g" horiz-adv-x="1136" d="M104 563q0 164 17 244q23 109 92 178q94 94 256 94q160 0 260 -112v100h258v-1028q0 -195 -128 -318.5t-341 -123.5q-242 0 -387 139l166 168q84 -82 209 -82q111 0 168 69q47 59 47 152v109q-96 -106 -254 -107q-160 0 -254 94q-70 70 -92 180q-16 80 -17 244zM371 563 q0 -131 28 -192q39 -86 146 -86q111 0 149 92q27 61 27 186t-27 185q-39 92 -149 92q-106 0 -146 -86q-28 -57 -28 -182v-9z" />
<glyph unicode="h" horiz-adv-x="1165" d="M150 0v1458h266v-489q108 110 253 110h3q170 0 266 -110q90 -104 90 -279v-690h-266v651q0 98 -55 148q-47 41 -119 41t-117 -41q-55 -51 -55 -148v-651h-266z" />
<glyph unicode="i" horiz-adv-x="563" d="M145 1249v217h273v-217h-273zM150 0v1067h266v-1067h-266z" />
<glyph unicode="j" horiz-adv-x="563" d="M-47 -174h102q94 0 95 96v1145h266v-1161q0 -125 -74 -209q-84 -96 -238 -96h-151v225zM145 1249v217h273v-217h-273z" />
<glyph unicode="k" horiz-adv-x="1144" d="M150 0v1458h266v-827l354 436h322l-381 -430l409 -637h-329l-263 444l-112 -127v-317h-266z" />
<glyph unicode="l" horiz-adv-x="665" d="M139 305v1153h267v-1136q0 -96 94 -97h102v-225h-151q-154 0 -238 96q-74 84 -74 209z" />
<glyph unicode="m" horiz-adv-x="1794" d="M150 0v1067h260v-98q105 110 263 110h3q184 0 282 -135q129 135 320 135q168 0 262 -94q117 -117 117 -303v-682h-266v645q0 100 -58 152q-47 43 -119 43t-118 -41q-59 -51 -60 -148v-651h-266v645q0 100 -57 152q-47 43 -119 43q-74 0 -121 -43q-57 -51 -57 -152v-645 h-266z" />
<glyph unicode="n" horiz-adv-x="1173" d="M150 0v1067h260v-98q103 110 263 110h3q158 0 252 -94q109 -109 108 -303v-682h-266v645q0 100 -57 152q-47 43 -119 43q-74 0 -121 -43q-57 -51 -57 -152v-645h-266z" />
<glyph unicode="o" d="M104 535q0 287 123 415.5t328 128.5q207 0 330 -128.5t123 -415.5q0 -154 -25 -244q-27 -100 -96 -172q-125 -131 -332 -131q-205 0 -330 131q-70 72 -96 172q-25 90 -25 244zM371 535q0 -199 61 -261q47 -47 123 -47q78 0 125 47q61 62 61 261q0 197 -61 258 q-47 47 -125 47q-76 0 -123 -47q-61 -61 -61 -258z" />
<glyph unicode="p" horiz-adv-x="1146" d="M150 -391v1458h258v-100q101 112 263 112h3q164 0 260 -96q72 -72 94 -205q14 -81 14 -243q0 -164 -14 -246q-23 -133 -94 -205q-96 -96 -260 -96q-162 0 -258 106v-485h-266zM416 535q0 -141 22 -203q41 -104 158 -105q117 0 158 105q22 62 22 203t-22 202 q-41 102 -158 103q-117 0 -158 -103q-22 -58 -22 -190v-12z" />
<glyph unicode="q" horiz-adv-x="1148" d="M104 535q0 162 15 243q23 133 94 205q96 96 262 96q164 0 264 -112v100h260v-1458h-266v485q-96 -106 -260 -106t-260 96q-72 72 -94 205q-14 82 -15 246zM371 535q0 -141 22 -203q41 -104 158 -105q111 0 151 88q31 68 31 220t-31 217q-41 88 -151 88q-117 0 -158 -103 q-22 -58 -22 -190v-12z" />
<glyph unicode="r" horiz-adv-x="931" d="M150 0v1067h260v-102q95 114 265 114h3q152 0 252 -100l-201 -203q-63 63 -141 64q-68 0 -117 -47q-55 -55 -55 -150v-643h-266z" />
<glyph unicode="s" horiz-adv-x="1026" d="M45 141l174 174q100 -100 285 -100q188 0 188 111q0 88 -112 98l-168 16q-311 31 -312 299q0 160 125 254q115 86 287 86q274 0 408 -125l-164 -166q-80 72 -248 72q-152 0 -152 -102q0 -82 111 -92l168 -17q317 -30 317 -313q0 -170 -131 -262q-123 -86 -321 -86 q-150 0 -244 26q-119 35 -211 127z" />
<glyph unicode="t" horiz-adv-x="720" d="M61 834v202h113v316h266v-316h189v-202h-189v-512q0 -96 92 -97h97v-225h-146q-152 0 -235 96q-74 84 -74 209v529h-113z" />
<glyph unicode="u" horiz-adv-x="1173" d="M137 385v682h266v-645q0 -100 58 -152q47 -43 119 -43q74 0 120 43q57 51 58 152v645h266v-1067h-260v98q-103 -110 -263 -110h-3q-158 0 -252 94q-109 109 -109 303z" />
<glyph unicode="v" horiz-adv-x="1009" d="M8 1067h281l217 -659l215 659h280l-391 -1067h-209z" />
<glyph unicode="w" horiz-adv-x="1554" d="M8 1067h283l172 -659l217 659h194l220 -659l172 659h280l-325 -1067h-220l-223 670l-223 -670h-219z" />
<glyph unicode="x" horiz-adv-x="1079" d="M25 0l368 545l-354 522h319l181 -305l182 305h319l-354 -522l369 -545h-320l-196 319l-195 -319h-319z" />
<glyph unicode="y" horiz-adv-x="1011" d="M8 1067h281l221 -659l213 659h281l-457 -1239q-33 -90 -80 -137q-82 -82 -229 -82h-105v239h62q59 0 86.5 20.5t46.5 76.5l45 131z" />
<glyph unicode="z" horiz-adv-x="978" d="M76 0v203l473 624h-447v240h787v-203l-479 -624h479v-240h-813z" />
<glyph unicode="{" horiz-adv-x="935" d="M88 610v238h94q68 0 105 37t37 125v297q0 141 86 227q76 76 229 76h209v-240h-109q-90 0 -116 -29q-33 -35 -33 -131v-276q0 -150 -141 -205q141 -55 141 -205v-276q0 -133 72 -154q27 -6 77 -6h109v-240h-209q-154 0 -229 76q-86 86 -86 228v297q0 88 -37 124.5 t-105 36.5h-94z" />
<glyph unicode="|" horiz-adv-x="716" d="M225 -152v1762h267v-1762h-267z" />
<glyph unicode="}" horiz-adv-x="935" d="M88 88h109q90 0 119.5 32t29.5 128v276q0 150 141 205q-141 55 -141 205v276q0 133 -72 154q-27 6 -77 6h-109v240h209q154 0 229 -76q86 -86 86 -227v-297q0 -88 37 -125t105 -37h94v-238h-94q-68 0 -105 -36.5t-37 -124.5v-297q0 -141 -86 -228q-76 -76 -229 -76h-209 v240z" />
<glyph unicode="~" horiz-adv-x="1241" d="M76 600q98 98 170.5 137t165.5 39q109 0 239 -69q92 -49 166 -50q92 0 178 86l170 -168q-96 -96 -170.5 -136t-167.5 -40q-109 0 -239 70q-92 49 -168 49q-90 0 -176 -86z" />
<glyph unicode="&#xa1;" horiz-adv-x="710" d="M154 -391l65 1001h199l65 -1001h-329zM178 795v272h281v-272h-281z" />
<glyph unicode="&#xa2;" horiz-adv-x="1021" d="M96 750q0 227 109 368q100 131 270 166v174h207v-174q160 -29 279 -154l-177 -172q-63 66 -131 84v-585q68 18 131 84l177 -172q-119 -125 -279 -154v-215h-207v215q-170 35 -270 166q-109 141 -109 369zM362 750q0 -156 64 -236q33 -41 78 -53v577q-45 -12 -78 -53 q-63 -78 -64 -235z" />
<glyph unicode="&#xa3;" horiz-adv-x="1185" d="M82 608v205h125v166q0 231 155 367q143 125 359 124q223 0 373 -149l-187 -186q-82 82 -186 82q-231 0 -232 -250v-154h232v-205h-232v-354h605v-254h-887v608h-125z" />
<glyph unicode="&#xa4;" horiz-adv-x="1370" d="M119 197l151 149q-68 115 -67 240q0 125 67 239l-151 150l176 176l151 -150q111 66 238 66q129 0 240 -66l151 150l174 -176l-149 -150q66 -111 65 -239q0 -129 -65 -240l149 -149l-174 -177l-151 150q-111 -66 -240 -66q-127 0 -238 66l-151 -150zM444 586 q0 -100 70 -170t170 -70t171 70t71 170t-71 169.5t-171 69.5t-170 -69.5t-70 -169.5z" />
<glyph unicode="&#xa5;" horiz-adv-x="1169" d="M6 1458h309l271 -590l270 590h307l-278 -553h151v-205h-256l-53 -102v-104h309v-205h-309v-289h-283v289h-311v205h311v104l-53 102h-258v205h154z" />
<glyph unicode="&#xa6;" horiz-adv-x="722" d="M225 -152v717h267v-717h-267zM225 893v717h267v-717h-267z" />
<glyph unicode="&#xa7;" horiz-adv-x="1087" d="M125 543q0 104 63 192q51 74 123 113q-156 82 -155 268q0 150 96 246q109 109 297 108q193 0 297 -102q94 -94 96 -250h-250q-6 125 -143 125q-143 0 -143 -121q0 -90 137 -135l127 -41q154 -49 223 -135q76 -94 76 -250q0 -102 -64 -192q-51 -74 -121 -113 q166 -82 166 -285q0 -178 -127 -282q-113 -92 -278 -92q-166 0 -277 84q-129 98 -131 280h256q6 -129 152 -129q150 0 149 131q0 102 -143 152l-127 43q-154 51 -223 135q-76 92 -76 250zM381 551q0 -88 49 -137q43 -43 117 -43q72 0 115 43q51 51 51 137q0 90 -51 139 q-45 43 -115 43q-74 0 -117 -43q-49 -49 -49 -139z" />
<glyph unicode="&#xa8;" horiz-adv-x="1024" d="M172 1241v256h227v-256h-227zM625 1241v256h227v-256h-227z" />
<glyph unicode="&#xa9;" horiz-adv-x="1728" d="M123 729q0 307 217 524t524 217t524.5 -217t217.5 -524t-217.5 -524t-524.5 -217t-524 217t-217 524zM299 729q0 -246 163 -410.5t402 -164.5q240 0 401.5 164.5t161.5 410.5t-161.5 411t-401.5 165t-402.5 -165t-162.5 -411zM512 729q0 190 106 301q100 102 261 103 q145 0 270 -109l-115 -115q-78 66 -155 66q-193 0 -193 -246t193 -246q78 0 155 66l115 -115q-119 -106 -270 -106q-160 0 -261 102q-106 109 -106 299z" />
<glyph unicode="&#xaa;" horiz-adv-x="929" d="M98 864q0 109 72 174q78 74 219 74h199v41q0 133 -158 133q-100 0 -162 -69l-137 133q109 119 309 118q362 0 363 -301v-561h-211v74q-82 -82 -207 -82q-139 0 -213 76t-74 190zM307 870q0 -94 117 -94q86 0 125 31t39 113v47h-166q-115 0 -115 -97z" />
<glyph unicode="&#xab;" horiz-adv-x="1286" d="M70 563l510 508v-317l-193 -191l193 -190v-318zM639 563l512 508v-317l-197 -191l197 -190v-318z" />
<glyph unicode="&#xac;" d="M94 489v248h924v-544h-248v296h-676z" />
<glyph unicode="&#xad;" horiz-adv-x="872" d="M121 461v248h631v-248h-631z" />
<glyph unicode="&#xae;" horiz-adv-x="1728" d="M123 729q0 307 217 524t524 217t524.5 -217t217.5 -524t-217.5 -524t-524.5 -217t-524 217t-217 524zM299 729q0 -246 163 -410.5t402 -164.5q240 0 403 164.5t163 410.5t-163 411t-403 165t-402.5 -165t-162.5 -411zM594 336v788h321q117 0 190 -72.5t73 -174.5 q0 -150 -146 -209l166 -332h-201l-143 305h-84v-305h-176zM770 774h123q47 0 77.5 30t30.5 73t-30.5 72.5t-77.5 29.5h-123v-205z" />
<glyph unicode="&#xaf;" horiz-adv-x="1024" d="M188 1290v178h648v-178h-648z" />
<glyph unicode="&#xb0;" horiz-adv-x="978" d="M113 1110q0 158 110.5 268.5t265.5 110.5q156 0 266.5 -110.5t110.5 -268.5q0 -156 -109.5 -266.5t-267.5 -110.5q-156 0 -266 110.5t-110 266.5zM328 1110q0 -70 47 -117t114 -47q68 0 115 47t47 117t-48 117t-116 47t-113.5 -47t-45.5 -117z" />
<glyph unicode="&#xb1;" d="M102 0v250h908v-250h-908zM102 698v248h330v330h250v-330h328v-248h-328v-329h-250v329h-330z" />
<glyph unicode="&#xb2;" horiz-adv-x="733" d="M88 584v174l320 350q45 49 45 96q0 88 -86 88t-86 -90h-193q0 123 82 197q76 68 197 67q123 0 200.5 -70.5t77.5 -191.5q0 -98 -106 -213l-215 -233h321v-174h-557z" />
<glyph unicode="&#xb3;" horiz-adv-x="753" d="M88 846h193q0 -98 96 -98t96 102q0 98 -100 98h-27v166h27q90 0 90 88q0 90 -86 90t-86 -86h-193q0 119 80 189.5t199 70.5q121 0 199.5 -72.5t78.5 -185.5q0 -117 -92 -172q103 -65 103 -192q0 -129 -86 -203q-80 -66 -203 -66q-121 0 -199 64q-90 72 -90 207z" />
<glyph unicode="&#xb4;" horiz-adv-x="1024" d="M399 1237l131 348h281l-233 -348h-179z" />
<glyph unicode="&#xb5;" horiz-adv-x="1179" d="M143 -391v1458h267v-645q0 -100 57 -152q47 -43 119 -43q74 0 121 43q57 51 57 152v645h266v-1067h-260v98q-104 -111 -266 -110q-55 0 -94 28v-407h-267z" />
<glyph unicode="&#xb6;" horiz-adv-x="1368" d="M72 1042q0 199 131 310q125 106 342 106h653v-1849h-266v1595h-205v-1595h-266v1022q-156 0 -272.5 121.5t-116.5 289.5z" />
<glyph unicode="&#xb7;" horiz-adv-x="583" d="M139 434v303h305v-303h-305z" />
<glyph unicode="&#xb8;" horiz-adv-x="1024" d="M328 -422l141 299h197l-91 -299h-247z" />
<glyph unicode="&#xb9;" horiz-adv-x="598" d="M78 1081v217l184 160h195v-874h-195v657z" />
<glyph unicode="&#xba;" horiz-adv-x="946" d="M113 1032q0 229 99 332.5t261 103.5t261.5 -103.5t99.5 -332.5q0 -227 -99.5 -330.5t-261.5 -103.5t-261 103.5t-99 330.5zM328 1032q0 -158 47 -205q37 -37 98 -36q61 0 98 36q47 47 47 205q0 160 -47 207q-37 37 -98 37t-98 -37q-47 -47 -47 -207z" />
<glyph unicode="&#xbb;" horiz-adv-x="1286" d="M137 55v318l195 190l-195 191v317l510 -508zM707 55v318l192 190l-192 191v317l512 -508z" />
<glyph unicode="&#xbc;" horiz-adv-x="1712" d="M78 1081v217l184 160h195v-874h-195v657zM381 0l690 1458h209l-690 -1458h-209zM1018 117v182l293 575h211l-295 -575h151v127h185v-127h67v-182h-67v-117h-185v117h-360z" />
<glyph unicode="&#xbd;" horiz-adv-x="1765" d="M78 1081v217l184 160h195v-874h-195v657zM373 0l690 1458h207l-690 -1458h-207zM1120 0v174l320 350q47 51 47 97q0 88 -88 88q-84 0 -84 -91h-195q0 123 82 197q76 68 197 68q123 0 200.5 -71t77.5 -191q0 -98 -106 -213l-215 -234h321v-174h-557z" />
<glyph unicode="&#xbe;" horiz-adv-x="1771" d="M88 846h193q0 -98 96 -98t96 102q0 98 -100 98h-27v166h27q90 0 90 88q0 90 -86 90t-86 -86h-193q0 119 80 189.5t199 70.5q121 0 199.5 -72.5t78.5 -185.5q0 -117 -92 -172q103 -65 103 -192q0 -129 -86 -203q-80 -66 -203 -66q-121 0 -199 64q-90 72 -90 207zM446 0 l691 1458h209l-691 -1458h-209zM1077 117v182l293 575h211l-295 -575h152v127h184v-127h68v-182h-68v-117h-184v117h-361z" />
<glyph unicode="&#xbf;" horiz-adv-x="1071" d="M74 6q0 121 100 256l152 203q37 49 36 104v41h267v-61q0 -113 -78 -213l-152 -195q-59 -76 -59 -137q0 -74 44 -121t120 -47q78 0 122 49t44 123h266q0 -186 -124 -298.5t-308 -112.5q-180 0 -301 106q-129 115 -129 303zM354 795v272h283v-272h-283z" />
<glyph unicode="&#xc0;" horiz-adv-x="1306" d="M10 0l531 1458h223l532 -1458h-297l-86 258h-518l-88 -258h-297zM350 1947h281l131 -348h-179zM475 498h363l-179 530z" />
<glyph unicode="&#xc1;" horiz-adv-x="1306" d="M10 0l531 1458h223l532 -1458h-297l-86 258h-518l-88 -258h-297zM475 498h363l-179 530zM536 1599l131 348h281l-233 -348h-179z" />
<glyph unicode="&#xc2;" horiz-adv-x="1306" d="M10 0l531 1458h223l532 -1458h-297l-86 258h-518l-88 -258h-297zM272 1599l271 346h212l271 -346h-207l-170 186l-170 -186h-207zM475 498h363l-179 530z" />
<glyph unicode="&#xc3;" horiz-adv-x="1306" d="M10 0l531 1458h223l532 -1458h-297l-86 258h-518l-88 -258h-297zM278 1763q121 121 230 121q80 0 157 -47q61 -37 113 -37q61 0 121 59l119 -117q-121 -121 -232 -120q-76 0 -157 47q-63 37 -115 36q-61 0 -121 -59zM475 498h363l-179 530z" />
<glyph unicode="&#xc4;" horiz-adv-x="1306" d="M10 0l531 1458h223l532 -1458h-297l-86 258h-518l-88 -258h-297zM309 1603v256h227v-256h-227zM475 498h363l-179 530zM762 1603v256h227v-256h-227z" />
<glyph unicode="&#xc5;" horiz-adv-x="1306" d="M10 0l531 1458h223l532 -1458h-297l-86 258h-518l-88 -258h-297zM381 1810q0 111 78.5 190t189.5 79t189.5 -78t78.5 -191q0 -111 -78.5 -189.5t-189.5 -78.5t-189.5 79t-78.5 189zM475 498h363l-179 530zM530 1810q0 -49 35 -85t84 -36t84 36t35 85t-35 84t-84 35 t-84 -35t-35 -84z" />
<glyph unicode="&#xc6;" horiz-adv-x="2004" d="M6 0l762 1458h1128v-254h-675v-344h577v-254h-577v-352h675v-254h-958v319h-461l-166 -319h-305zM600 559h338v645z" />
<glyph unicode="&#xc7;" horiz-adv-x="1269" d="M121 729q0 240 16 330q29 154 127 252q160 160 393 159q211 0 355.5 -118.5t181.5 -341.5h-289q-51 207 -246 207q-129 0 -198 -97q-55 -78 -55 -391q0 -170 4 -213q14 -137 67 -199q68 -76 182 -75q195 0 246 207h289q-37 -223 -186 -345q-141 -117 -351 -116 q-233 0 -393 159q-98 98 -127 252q-16 90 -16 330zM439 -422l141 299h197l-91 -299h-247z" />
<glyph unicode="&#xc8;" horiz-adv-x="1239" d="M170 0v1458h960v-254h-675v-342h575v-254h-575v-354h675v-254h-960zM336 1947h281l131 -348h-179z" />
<glyph unicode="&#xc9;" horiz-adv-x="1239" d="M170 0v1458h960v-254h-675v-342h575v-254h-575v-354h675v-254h-960zM520 1599l131 348h281l-233 -348h-179z" />
<glyph unicode="&#xca;" horiz-adv-x="1239" d="M170 0v1458h960v-254h-675v-342h575v-254h-575v-354h675v-254h-960zM258 1599l271 346h212l271 -346h-207l-170 186l-170 -186h-207z" />
<glyph unicode="&#xcb;" horiz-adv-x="1239" d="M170 0v1458h960v-254h-675v-342h575v-254h-575v-354h675v-254h-960zM295 1603v256h227v-256h-227zM748 1603v256h227v-256h-227z" />
<glyph unicode="&#xcc;" horiz-adv-x="624" d="M68 1947h281l131 -348h-179zM170 0v1458h285v-1458h-285z" />
<glyph unicode="&#xcd;" horiz-adv-x="624" d="M151 1599l131 348h281l-233 -348h-179zM170 0v1458h285v-1458h-285z" />
<glyph unicode="&#xce;" horiz-adv-x="624" d="M-68 1599l271 346h212l271 -346h-207l-170 186l-170 -186h-207zM170 0v1458h285v-1458h-285z" />
<glyph unicode="&#xcf;" horiz-adv-x="624" d="M-27 1603v256h227v-256h-227zM170 0v1458h285v-1458h-285zM426 1603v256h227v-256h-227z" />
<glyph unicode="&#xd0;" horiz-adv-x="1396" d="M76 629v217h141v612h526q252 0 404 -172q92 -104 117 -239q12 -76 12 -318q0 -246 -14 -323q-23 -133 -115 -236q-154 -170 -408 -170h-522v629h-141zM502 252h215q154 0 227 108q37 55 45 175q2 22 2 190q0 162 -2 195q-10 123 -49 180q-76 106 -223 106h-215v-360h237 v-217h-237v-377z" />
<glyph unicode="&#xd1;" horiz-adv-x="1456" d="M170 0v1458h254l577 -893v893h285v-1458h-254l-577 895v-895h-285zM358 1763q121 121 230 121q80 0 157 -47q61 -37 113 -37q61 0 121 59l119 -117q-121 -121 -232 -120q-76 0 -157 47q-63 37 -115 36q-61 0 -121 -59z" />
<glyph unicode="&#xd2;" horiz-adv-x="1318" d="M121 729q0 240 16 330q29 154 127 252q160 160 395 159q233 0 394 -159q100 -100 127 -252q18 -92 18 -330t-18 -330q-27 -152 -127 -252q-160 -160 -394 -159q-236 0 -395 159q-98 98 -127 252q-16 90 -16 330zM360 1947h281l131 -348h-179zM406 729q0 -176 4 -213 q12 -135 65 -197q70 -78 184 -77q127 0 199 98q55 76 55 389q0 168 -4 213q-12 135 -67 197q-70 78 -183 78q-115 0 -184 -78q-53 -61 -65 -197q-4 -37 -4 -213z" />
<glyph unicode="&#xd3;" horiz-adv-x="1318" d="M121 729q0 240 16 330q29 154 127 252q160 160 395 159q233 0 394 -159q100 -100 127 -252q18 -92 18 -330t-18 -330q-27 -152 -127 -252q-160 -160 -394 -159q-236 0 -395 159q-98 98 -127 252q-16 90 -16 330zM406 729q0 -176 4 -213q12 -135 65 -197q70 -78 184 -77 q127 0 199 98q55 76 55 389q0 168 -4 213q-12 135 -67 197q-70 78 -183 78q-115 0 -184 -78q-53 -61 -65 -197q-4 -37 -4 -213zM546 1599l131 348h281l-233 -348h-179z" />
<glyph unicode="&#xd4;" horiz-adv-x="1318" d="M121 729q0 240 16 330q29 154 127 252q160 160 395 159q233 0 394 -159q100 -100 127 -252q18 -92 18 -330t-18 -330q-27 -152 -127 -252q-160 -160 -394 -159q-236 0 -395 159q-98 98 -127 252q-16 90 -16 330zM282 1599l271 346h212l271 -346h-207l-170 186l-170 -186 h-207zM406 729q0 -176 4 -213q12 -135 65 -197q70 -78 184 -77q127 0 199 98q55 76 55 389q0 168 -4 213q-12 135 -67 197q-70 78 -183 78q-115 0 -184 -78q-53 -61 -65 -197q-4 -37 -4 -213z" />
<glyph unicode="&#xd5;" horiz-adv-x="1318" d="M121 729q0 240 16 330q29 154 127 252q160 160 395 159q233 0 394 -159q100 -100 127 -252q18 -92 18 -330t-18 -330q-27 -152 -127 -252q-160 -160 -394 -159q-236 0 -395 159q-98 98 -127 252q-16 90 -16 330zM288 1763q121 121 230 121q80 0 157 -47q61 -37 113 -37 q61 0 121 59l119 -117q-121 -121 -232 -120q-76 0 -157 47q-63 37 -115 36q-61 0 -121 -59zM406 729q0 -176 4 -213q12 -135 65 -197q70 -78 184 -77q127 0 199 98q55 76 55 389q0 168 -4 213q-12 135 -67 197q-70 78 -183 78q-115 0 -184 -78q-53 -61 -65 -197 q-4 -37 -4 -213z" />
<glyph unicode="&#xd6;" horiz-adv-x="1318" d="M121 729q0 240 16 330q29 154 127 252q160 160 395 159q233 0 394 -159q100 -100 127 -252q18 -92 18 -330t-18 -330q-27 -152 -127 -252q-160 -160 -394 -159q-236 0 -395 159q-98 98 -127 252q-16 90 -16 330zM319 1603v256h227v-256h-227zM406 729q0 -176 4 -213 q12 -135 65 -197q70 -78 184 -77q127 0 199 98q55 76 55 389q0 168 -4 213q-12 135 -67 197q-70 78 -183 78q-115 0 -184 -78q-53 -61 -65 -197q-4 -37 -4 -213zM772 1603v256h227v-256h-227z" />
<glyph unicode="&#xd7;" d="M100 297l289 289l-289 288l168 168l287 -288l289 288l168 -168l-289 -288l289 -289l-168 -168l-289 289l-287 -289z" />
<glyph unicode="&#xd8;" horiz-adv-x="1335" d="M121 729q0 240 16 330q29 154 127 252q160 160 395 159q133 0 232 -45l59 123h201l-109 -227l11 -10q100 -100 127 -252q18 -92 18 -330t-18 -330q-27 -152 -127 -252q-160 -160 -394 -159q-133 0 -231 45l-59 -123h-203l108 227l-10 10q-98 98 -127 252q-16 90 -16 330z M406 729q0 -233 18 -309l364 764q-53 33 -129 33q-115 0 -184 -78q-53 -61 -65 -197q-4 -37 -4 -213zM528 276q57 -35 131 -34q127 0 199 98q55 76 55 389q0 225 -20 309z" />
<glyph unicode="&#xd9;" horiz-adv-x="1368" d="M147 500v958h285v-948q0 -125 67.5 -196.5t184.5 -71.5t185.5 71.5t68.5 196.5v948h283v-958q0 -227 -154 -369.5t-383 -142.5t-383 142t-154 370zM385 1947h281l131 -348h-179z" />
<glyph unicode="&#xda;" horiz-adv-x="1368" d="M147 500v958h285v-948q0 -125 67.5 -196.5t184.5 -71.5t185.5 71.5t68.5 196.5v948h283v-958q0 -227 -154 -369.5t-383 -142.5t-383 142t-154 370zM571 1599l131 348h281l-233 -348h-179z" />
<glyph unicode="&#xdb;" horiz-adv-x="1368" d="M147 500v958h285v-948q0 -125 67.5 -196.5t184.5 -71.5t185.5 71.5t68.5 196.5v948h283v-958q0 -227 -154 -369.5t-383 -142.5t-383 142t-154 370zM307 1599l271 346h212l271 -346h-207l-170 186l-170 -186h-207z" />
<glyph unicode="&#xdc;" horiz-adv-x="1368" d="M147 500v958h285v-948q0 -125 67.5 -196.5t184.5 -71.5t185.5 71.5t68.5 196.5v948h283v-958q0 -227 -154 -369.5t-383 -142.5t-383 142t-154 370zM344 1603v256h227v-256h-227zM797 1603v256h227v-256h-227z" />
<glyph unicode="&#xdd;" horiz-adv-x="1171" d="M6 1458h309l273 -588l268 588h309l-438 -860v-598h-283v598zM471 1599l131 348h281l-233 -348h-179z" />
<glyph unicode="&#xde;" horiz-adv-x="1296" d="M170 0v1458h285v-268h280q219 0 355 -133q127 -127 127 -320t-127 -319q-135 -135 -355 -135h-280v-283h-285zM455 537h266q96 0 153.5 55t57.5 145t-57.5 144.5t-153.5 54.5h-266v-399z" />
<glyph unicode="&#xdf;" horiz-adv-x="1175" d="M150 0v1067q0 205 131 309q121 94 329 94q203 0 320 -86q125 -94 125 -272q0 -156 -125 -231q127 -66 127 -224v-327q0 -162 -86 -246t-256 -84h-107v225h54q59 0 92.5 31t33.5 96v295q0 61 -31.5 93t-90.5 32h-58v209h58q123 0 122 123q0 135 -182 135q-190 0 -190 -192 v-1047h-266z" />
<glyph unicode="&#xe0;" horiz-adv-x="1093" d="M74 324q0 135 93 222t271 87h252v53q0 168 -198 168q-129 0 -205 -88l-170 166q76 84 166 117q82 31 219 30q455 0 454 -377v-702h-260v92q-102 -102 -262 -102q-180 0 -270 92t-90 242zM236 1585h281l131 -348h-179zM330 330q0 -123 153 -123q137 0 183 67q24 37 24 119 v58h-211q-150 0 -149 -121z" />
<glyph unicode="&#xe1;" horiz-adv-x="1093" d="M74 324q0 135 93 222t271 87h252v53q0 168 -198 168q-129 0 -205 -88l-170 166q76 84 166 117q82 31 219 30q455 0 454 -377v-702h-260v92q-102 -102 -262 -102q-180 0 -270 92t-90 242zM330 330q0 -123 153 -123q137 0 183 67q24 37 24 119v58h-211q-150 0 -149 -121z M422 1237l131 348h281l-233 -348h-179z" />
<glyph unicode="&#xe2;" horiz-adv-x="1093" d="M74 324q0 135 93 222t271 87h252v53q0 168 -198 168q-129 0 -205 -88l-170 166q76 84 166 117q82 31 219 30q455 0 454 -377v-702h-260v92q-102 -102 -262 -102q-180 0 -270 92t-90 242zM158 1237l271 346h212l271 -346h-207l-170 186l-170 -186h-207zM330 330 q0 -123 153 -123q137 0 183 67q24 37 24 119v58h-211q-150 0 -149 -121z" />
<glyph unicode="&#xe3;" horiz-adv-x="1093" d="M74 324q0 135 93 222t271 87h252v53q0 168 -198 168q-129 0 -205 -88l-170 166q76 84 166 117q82 31 219 30q455 0 454 -377v-702h-260v92q-102 -102 -262 -102q-180 0 -270 92t-90 242zM164 1401q121 121 230 121q80 0 157 -47q61 -37 113 -37q61 0 121 59l119 -117 q-121 -121 -232 -120q-76 0 -157 47q-63 37 -115 36q-61 0 -121 -59zM330 330q0 -123 153 -123q137 0 183 67q24 37 24 119v58h-211q-150 0 -149 -121z" />
<glyph unicode="&#xe4;" horiz-adv-x="1093" d="M74 324q0 135 93 222t271 87h252v53q0 168 -198 168q-129 0 -205 -88l-170 166q76 84 166 117q82 31 219 30q455 0 454 -377v-702h-260v92q-102 -102 -262 -102q-180 0 -270 92t-90 242zM195 1241v256h227v-256h-227zM330 330q0 -123 153 -123q137 0 183 67q24 37 24 119 v58h-211q-150 0 -149 -121zM648 1241v256h227v-256h-227z" />
<glyph unicode="&#xe5;" horiz-adv-x="1093" d="M74 324q0 135 93 222t271 87h252v53q0 168 -198 168q-129 0 -205 -88l-170 166q76 84 166 117q82 31 219 30q455 0 454 -377v-702h-260v92q-102 -102 -262 -102q-180 0 -270 92t-90 242zM267 1464q0 111 78.5 190t189.5 79t189.5 -78t78.5 -191q0 -111 -78.5 -189.5 t-189.5 -78.5t-189.5 79t-78.5 189zM330 330q0 -123 153 -123q137 0 183 67q24 37 24 119v58h-211q-150 0 -149 -121zM416 1464q0 -49 35 -85t84 -36t84 36t35 85t-35 84t-84 35t-84 -35t-35 -84z" />
<glyph unicode="&#xe6;" horiz-adv-x="1716" d="M74 324q0 135 93 222t271 87h252v53q0 168 -198 168q-129 0 -205 -88l-170 166q76 84 166 117q82 31 219 30q244 0 350 -116q115 117 303 116q217 0 344 -145q121 -139 121 -365v-118h-668q0 -106 62.5 -172t171.5 -66q141 0 241 100l162 -157q-88 -88 -172 -125 q-96 -43 -233 -43q-246 0 -375 149q-82 -90 -174 -123q-78 -27 -201 -26q-178 0 -272 96q-88 90 -88 240zM330 330q0 -123 153 -123q137 0 183 67q24 37 24 119v58h-211q-150 0 -149 -121zM952 633h406q-2 66 -25 115q-49 111 -178 110q-129 0 -178 -110q-23 -49 -25 -115z " />
<glyph unicode="&#xe7;" horiz-adv-x="987" d="M96 535q0 293 160 434q123 111 317 110q215 0 353 -143l-181 -180q-78 84 -172 84t-152.5 -72t-58.5 -233q0 -164 58.5 -236t152.5 -72t172 84l181 -178q-139 -145 -353 -145q-195 0 -317 110q-160 143 -160 437zM328 -422l141 299h197l-91 -299h-247z" />
<glyph unicode="&#xe8;" horiz-adv-x="1122" d="M96 535q0 256 129 403q125 141 336 141q217 0 344 -145q121 -139 121 -365v-118h-668q0 -106 62.5 -172t171.5 -66q141 0 242 100l161 -157q-88 -88 -172 -125q-96 -43 -233 -43q-494 0 -494 547zM268 1585h281l131 -348h-179zM358 633h406q-2 66 -25 115 q-49 111 -178 110q-129 0 -178 -110q-23 -49 -25 -115z" />
<glyph unicode="&#xe9;" horiz-adv-x="1122" d="M96 535q0 256 129 403q125 141 336 141q217 0 344 -145q121 -139 121 -365v-118h-668q0 -106 62.5 -172t171.5 -66q141 0 242 100l161 -157q-88 -88 -172 -125q-96 -43 -233 -43q-494 0 -494 547zM358 633h406q-2 66 -25 115q-49 111 -178 110q-129 0 -178 -110 q-23 -49 -25 -115zM454 1237l131 348h281l-233 -348h-179z" />
<glyph unicode="&#xea;" horiz-adv-x="1122" d="M96 535q0 256 129 403q125 141 336 141q217 0 344 -145q121 -139 121 -365v-118h-668q0 -106 62.5 -172t171.5 -66q141 0 242 100l161 -157q-88 -88 -172 -125q-96 -43 -233 -43q-494 0 -494 547zM190 1237l271 346h212l271 -346h-207l-170 186l-170 -186h-207zM358 633 h406q-2 66 -25 115q-49 111 -178 110q-129 0 -178 -110q-23 -49 -25 -115z" />
<glyph unicode="&#xeb;" horiz-adv-x="1122" d="M96 535q0 256 129 403q125 141 336 141q217 0 344 -145q121 -139 121 -365v-118h-668q0 -106 62.5 -172t171.5 -66q141 0 242 100l161 -157q-88 -88 -172 -125q-96 -43 -233 -43q-494 0 -494 547zM227 1241v256h227v-256h-227zM358 633h406q-2 66 -25 115 q-49 111 -178 110q-129 0 -178 -110q-23 -49 -25 -115zM680 1241v256h227v-256h-227z" />
<glyph unicode="&#xec;" horiz-adv-x="563" d="M39 1585h281l131 -348h-179zM150 0v1067h266v-1067h-266z" />
<glyph unicode="&#xed;" horiz-adv-x="563" d="M120 1237l131 348h281l-233 -348h-179zM150 0v1067h266v-1067h-266z" />
<glyph unicode="&#xee;" horiz-adv-x="563" d="M-90 1237l271 346h212l271 -346h-207l-170 186l-170 -186h-207zM150 0v1067h266v-1067h-266z" />
<glyph unicode="&#xef;" horiz-adv-x="563" d="M-59 1241v256h227v-256h-227zM150 0v1067h266v-1067h-266zM394 1241v256h227v-256h-227z" />
<glyph unicode="&#xf0;" d="M115 520q0 279 118 404q68 70 183 100q86 23 155 14l-69 127h-234v187h140l-64 123h285l63 -123h189v-187h-95l82 -157q76 -147 101.5 -242.5t25.5 -245.5q0 -283 -120.5 -407.5t-319.5 -124.5t-319.5 125t-120.5 407zM381 520q0 -188 57 -248q43 -45 117 -45 q76 0 119 45q55 58 55 248q0 188 -55 246q-43 45 -119 45q-74 0 -117 -45q-57 -59 -57 -246z" />
<glyph unicode="&#xf1;" horiz-adv-x="1173" d="M150 0v1067h260v-98q104 111 266 110q158 0 252 -94q109 -109 108 -303v-682h-266v645q0 100 -57 152q-47 43 -119 43q-74 0 -121 -43q-57 -51 -57 -152v-645h-266zM223 1401q121 121 230 121q80 0 157 -47q61 -37 113 -37q61 0 121 59l119 -117q-121 -121 -232 -120 q-76 0 -157 47q-63 37 -115 36q-61 0 -121 -59z" />
<glyph unicode="&#xf2;" d="M104 535q0 287 123 415.5t328 128.5q207 0 330 -128.5t123 -415.5q0 -154 -25 -244q-27 -100 -96 -172q-125 -131 -332 -131q-205 0 -330 131q-70 72 -96 172q-25 90 -25 244zM250 1585h281l131 -348h-179zM371 535q0 -199 61 -261q47 -47 123 -47q78 0 125 47 q61 62 61 261q0 197 -61 258q-47 47 -125 47q-76 0 -123 -47q-61 -61 -61 -258z" />
<glyph unicode="&#xf3;" d="M104 535q0 287 123 415.5t328 128.5q207 0 330 -128.5t123 -415.5q0 -154 -25 -244q-27 -100 -96 -172q-125 -131 -332 -131q-205 0 -330 131q-70 72 -96 172q-25 90 -25 244zM371 535q0 -199 61 -261q47 -47 123 -47q78 0 125 47q61 62 61 261q0 197 -61 258 q-47 47 -125 47q-76 0 -123 -47q-61 -61 -61 -258zM444 1237l131 348h281l-233 -348h-179z" />
<glyph unicode="&#xf4;" d="M104 535q0 287 123 415.5t328 128.5q207 0 330 -128.5t123 -415.5q0 -154 -25 -244q-27 -100 -96 -172q-125 -131 -332 -131q-205 0 -330 131q-70 72 -96 172q-25 90 -25 244zM180 1237l271 346h212l271 -346h-207l-170 186l-170 -186h-207zM371 535q0 -199 61 -261 q47 -47 123 -47q78 0 125 47q61 62 61 261q0 197 -61 258q-47 47 -125 47q-76 0 -123 -47q-61 -61 -61 -258z" />
<glyph unicode="&#xf5;" d="M104 535q0 287 123 415.5t328 128.5q207 0 330 -128.5t123 -415.5q0 -154 -25 -244q-27 -100 -96 -172q-125 -131 -332 -131q-205 0 -330 131q-70 72 -96 172q-25 90 -25 244zM186 1401q121 121 230 121q80 0 157 -47q61 -37 113 -37q61 0 121 59l119 -117 q-121 -121 -232 -120q-76 0 -157 47q-63 37 -115 36q-61 0 -121 -59zM371 535q0 -199 61 -261q47 -47 123 -47q78 0 125 47q61 62 61 261q0 197 -61 258q-47 47 -125 47q-76 0 -123 -47q-61 -61 -61 -258z" />
<glyph unicode="&#xf6;" d="M104 535q0 287 123 415.5t328 128.5q207 0 330 -128.5t123 -415.5q0 -154 -25 -244q-27 -100 -96 -172q-125 -131 -332 -131q-205 0 -330 131q-70 72 -96 172q-25 90 -25 244zM217 1241v256h227v-256h-227zM371 535q0 -199 61 -261q47 -47 123 -47q78 0 125 47 q61 62 61 261q0 197 -61 258q-47 47 -125 47q-76 0 -123 -47q-61 -61 -61 -258zM670 1241v256h227v-256h-227z" />
<glyph unicode="&#xf7;" d="M94 461v248h924v-248h-924zM424 37v266h266v-266h-266zM424 866v267h266v-267h-266z" />
<glyph unicode="&#xf8;" d="M104 535q0 287 123 415.5t328 128.5q125 0 215 -45l72 123h164l-123 -207l4 -2q121 -126 121 -413q0 -154 -25 -244q-27 -100 -96 -172q-125 -131 -332 -131q-119 0 -213 47l-74 -125h-162l121 207l-2 2q-70 70 -96 172q-25 88 -25 244zM371 535q0 -119 14 -177l270 455 q-43 27 -100 27q-76 0 -123 -47q-61 -61 -61 -258zM457 254q43 -27 98 -27q78 0 125 47q61 62 61 261q0 109 -16 174z" />
<glyph unicode="&#xf9;" horiz-adv-x="1173" d="M137 385v682h266v-645q0 -100 58 -152q47 -43 119 -43q74 0 120 43q57 51 58 152v645h266v-1067h-260v98q-104 -111 -266 -110q-158 0 -252 94q-109 109 -109 303zM281 1585h281l131 -348h-179z" />
<glyph unicode="&#xfa;" horiz-adv-x="1173" d="M137 385v682h266v-645q0 -100 58 -152q47 -43 119 -43q74 0 120 43q57 51 58 152v645h266v-1067h-260v98q-104 -111 -266 -110q-158 0 -252 94q-109 109 -109 303zM467 1237l131 348h281l-233 -348h-179z" />
<glyph unicode="&#xfb;" horiz-adv-x="1173" d="M137 385v682h266v-645q0 -100 58 -152q47 -43 119 -43q74 0 120 43q57 51 58 152v645h266v-1067h-260v98q-104 -111 -266 -110q-158 0 -252 94q-109 109 -109 303zM203 1237l271 346h212l271 -346h-207l-170 186l-170 -186h-207z" />
<glyph unicode="&#xfc;" horiz-adv-x="1173" d="M137 385v682h266v-645q0 -100 58 -152q47 -43 119 -43q74 0 120 43q57 51 58 152v645h266v-1067h-260v98q-104 -111 -266 -110q-158 0 -252 94q-109 109 -109 303zM240 1241v256h227v-256h-227zM693 1241v256h227v-256h-227z" />
<glyph unicode="&#xfd;" horiz-adv-x="1011" d="M8 1067h281l221 -659l213 659h281l-457 -1239q-33 -90 -80 -137q-82 -82 -229 -82h-105v239h62q59 0 86.5 20.5t46.5 76.5l45 131zM387 1237l131 348h281l-233 -348h-179z" />
<glyph unicode="&#xfe;" horiz-adv-x="1150" d="M150 -391v1849h266v-485q96 106 258 106q164 0 260 -96q72 -72 94 -205q14 -81 14 -243q0 -164 -14 -246q-23 -133 -94 -205q-96 -96 -260 -96q-162 0 -258 106v-485h-266zM416 535q0 -141 22 -203q41 -104 158 -105q117 0 158 105q22 62 22 203t-22 202 q-41 102 -158 103q-117 0 -158 -103q-23 -61 -22 -202z" />
<glyph unicode="&#xff;" horiz-adv-x="1011" d="M8 1067h281l221 -659l213 659h281l-457 -1239q-33 -90 -80 -137q-82 -82 -229 -82h-105v239h62q59 0 86.5 20.5t46.5 76.5l45 131zM160 1241v256h227v-256h-227zM613 1241v256h227v-256h-227z" />
<glyph unicode="&#x152;" horiz-adv-x="1978" d="M121 729q0 240 16 334q29 156 127 254q154 154 387 153q166 0 262 -102v90h953v-252h-670q0 -29 2 -172v-174h569v-250h-569v-178q-2 -150 -2 -180h672v-252h-955v90q-96 -102 -262 -102q-233 0 -387 153q-98 98 -127 254q-16 94 -16 334zM406 729q0 -176 4 -213 q12 -135 65 -197q70 -78 184 -77q127 0 199 98q55 76 55 389q0 168 -4 213q-12 135 -67 197q-70 78 -183 78q-115 0 -184 -78q-53 -61 -65 -197q-4 -37 -4 -213z" />
<glyph unicode="&#x153;" horiz-adv-x="1767" d="M104 535q0 287 123 415.5t328 128.5q217 0 330 -141q117 141 321 141q217 0 344 -145q121 -139 121 -365v-118h-667q0 -106 62 -172t171 -66q139 0 240 100l163 -157q-88 -88 -172 -125q-96 -43 -233 -43q-236 0 -356 135q-111 -135 -324 -135q-205 0 -330 131 q-70 72 -96 172q-25 90 -25 244zM371 535q0 -199 61 -261q47 -47 123 -47q78 0 125 47q61 62 61 261q0 197 -61 258q-47 47 -125 47q-76 0 -123 -47q-61 -61 -61 -258zM1004 633h403q-2 70 -23 115q-49 111 -178 110q-131 0 -180 -110q-20 -45 -22 -115z" />
<glyph unicode="&#x178;" horiz-adv-x="1171" d="M6 1458h309l273 -588l268 588h309l-438 -860v-598h-283v598zM244 1603v256h227v-256h-227zM697 1603v256h227v-256h-227z" />
<glyph unicode="&#x2c6;" horiz-adv-x="1024" d="M135 1237l271 346h212l271 -346h-207l-170 186l-170 -186h-207z" />
<glyph unicode="&#x2dc;" horiz-adv-x="1024" d="M141 1401q121 121 230 121q80 0 157 -47q61 -37 113 -37q61 0 121 59l119 -117q-121 -121 -232 -120q-76 0 -157 47q-63 37 -115 36q-61 0 -121 -59z" />
<glyph unicode="&#x2000;" horiz-adv-x="1039" />
<glyph unicode="&#x2001;" horiz-adv-x="2079" />
<glyph unicode="&#x2002;" horiz-adv-x="1039" />
<glyph unicode="&#x2003;" horiz-adv-x="2079" />
<glyph unicode="&#x2004;" horiz-adv-x="693" />
<glyph unicode="&#x2005;" horiz-adv-x="519" />
<glyph unicode="&#x2006;" horiz-adv-x="346" />
<glyph unicode="&#x2007;" horiz-adv-x="346" />
<glyph unicode="&#x2008;" horiz-adv-x="259" />
<glyph unicode="&#x2009;" horiz-adv-x="415" />
<glyph unicode="&#x200a;" horiz-adv-x="115" />
<glyph unicode="&#x2010;" horiz-adv-x="872" d="M121 461v248h631v-248h-631z" />
<glyph unicode="&#x2011;" horiz-adv-x="872" d="M121 461v248h631v-248h-631z" />
<glyph unicode="&#x2012;" horiz-adv-x="872" d="M121 461v248h631v-248h-631z" />
<glyph unicode="&#x2013;" d="M102 461v248h908v-248h-908z" />
<glyph unicode="&#x2014;" horiz-adv-x="2103" d="M121 463v256h1861v-256h-1861z" />
<glyph unicode="&#x2018;" horiz-adv-x="559" d="M139 1206v252l279 215v-467h-279z" />
<glyph unicode="&#x2019;" horiz-adv-x="559" d="M139 993v465h279v-254z" />
<glyph unicode="&#x201a;" horiz-adv-x="555" d="M139 -213v467h279v-254z" />
<glyph unicode="&#x201c;" horiz-adv-x="987" d="M139 1206v252l277 215v-467h-277zM569 1206v252l279 215v-467h-279z" />
<glyph unicode="&#x201d;" horiz-adv-x="987" d="M139 993v465h277v-254zM569 993v465h279v-254z" />
<glyph unicode="&#x201e;" horiz-adv-x="993" d="M139 -213v467h277v-254zM569 -213v467h279v-254z" />
<glyph unicode="&#x2022;" horiz-adv-x="1009" d="M170 684q0 139 98.5 236.5t235.5 97.5q139 0 236.5 -97.5t97.5 -236.5q0 -137 -97.5 -235.5t-236.5 -98.5q-137 0 -235.5 98.5t-98.5 235.5z" />
<glyph unicode="&#x2026;" horiz-adv-x="1732" d="M139 0v289h291v-289h-291zM721 0v289h289v-289h-289zM1305 0v289h288v-289h-288z" />
<glyph unicode="&#x202f;" horiz-adv-x="415" />
<glyph unicode="&#x2039;" horiz-adv-x="716" d="M70 563l510 508v-317l-193 -191l193 -190v-318z" />
<glyph unicode="&#x203a;" horiz-adv-x="716" d="M137 55v318l195 190l-195 191v317l510 -508z" />
<glyph unicode="&#x205f;" horiz-adv-x="519" />
<glyph unicode="&#x2122;" horiz-adv-x="1892" d="M92 1284v174h645v-174h-225v-700h-195v700h-225zM872 584v874h195l250 -467l250 467h194v-874h-194v516l-164 -322h-172l-164 322v-516h-195z" />
<glyph unicode="&#x25fc;" horiz-adv-x="1064" d="M0 0v1065h1065v-1065h-1065z" />
</font>
</defs>
</svg>
