<?xml version="1.0" standalone="no"?>
<!DOCTYPE svg PUBLIC "-//W3C//DTD SVG 1.1//EN" "http://www.w3.org/Graphics/SVG/1.1/DTD/svg11.dtd" >
<svg xmlns="http://www.w3.org/2000/svg" xmlns:xlink="http://www.w3.org/1999/xlink" version="1.1">
<metadata></metadata>
<defs>
<font id="dinblackalternate" horiz-adv-x="1310" >
<font-face units-per-em="2048" ascent="1638" descent="-410" />
<missing-glyph horiz-adv-x="454" />
<glyph horiz-adv-x="0" />
<glyph unicode="&#xd;" horiz-adv-x="454" />
<glyph unicode=" "  horiz-adv-x="454" />
<glyph unicode="&#x09;" horiz-adv-x="454" />
<glyph unicode="&#xa0;" horiz-adv-x="454" />
<glyph unicode="!" horiz-adv-x="749" d="M205 1458h422l-90 -973h-242zM221 188q0 80 57.5 137.5t137.5 57.5t137 -57.5t57 -137.5t-57 -137t-137 -57t-137.5 57.5t-57.5 136.5z" />
<glyph unicode="&#x22;" horiz-adv-x="999" d="M117 979v479h301v-479h-301zM582 979v479h301v-479h-301z" />
<glyph unicode="#" horiz-adv-x="1460" d="M100 346v318h170l27 180h-119v317h170l49 314h357l-49 -314h184l49 314h356l-49 -314h119v-317h-170l-27 -180h119v-318h-170l-55 -346h-356l55 346h-185l-55 -346h-356l55 346h-119zM627 664h184l27 180h-185z" />
<glyph unicode="$" horiz-adv-x="1296" d="M10 180l230 230q98 -98 313 -103v271l-80 10q-393 51 -393 422q0 180 115.5 304t316.5 150v187h258v-183q260 -16 416 -172l-225 -225q-74 74 -232 84v-256l84 -12q203 -29 299 -133.5t96 -307.5q0 -184 -127 -305q-117 -113 -311 -143v-231h-258v221q-324 10 -502 192z M426 1022q0 -43 36 -74t91 -37v242q-127 -23 -127 -131zM729 313q127 25 127 125q0 55 -28.5 86t-98.5 39v-250z" />
<glyph unicode="%" horiz-adv-x="1755" d="M92 991v195q0 137 94 215q84 70 215 69q131 0 215 -69q94 -78 95 -215v-195q0 -137 -95 -215q-84 -70 -215 -69q-131 0 -215 69q-94 78 -94 215zM330 999q0 -80 71 -79q72 -1 72 79v179q0 80 -72 79q-72 0 -71 -79v-179zM401 0l695 1458h258l-695 -1458h-258zM1044 272 v195q0 137 95 215q84 70 215 70t215 -70q94 -78 94 -215v-195q0 -137 -94 -215q-84 -70 -215 -69q-131 0 -215 69q-94 78 -95 215zM1282 281q0 -80 72 -80q71 0 71 80v178q0 80 -71 80q-72 0 -72 -80v-178z" />
<glyph unicode="&#x26;" horiz-adv-x="1454" d="M100 442q0 211 232 365q-137 154 -137 301q0 166 111.5 264t316.5 98q190 0 298.5 -101t108.5 -265q0 -143 -143 -250q-33 -25 -103 -76l172 -198q55 63 68 211h315q-23 -295 -170 -457l285 -334h-422l-92 106q-78 -59 -127 -79q-90 -39 -219 -39q-494 0 -494 454z M424 444q0 -66 50 -109.5t120 -43.5q82 0 143 53l-227 260q-86 -59 -86 -160zM530 1100q0 -41 78 -119q16 12 49 35q58 41 58 86q0 86 -92 86t-93 -88z" />
<glyph unicode="'" horiz-adv-x="536" d="M117 979v479h303v-479h-303z" />
<glyph unicode="(" horiz-adv-x="733" d="M147 334v790q0 195 60 295q45 76 201 232l225 -226q-55 -55 -64 -63q-29 -33 -53 -74q-33 -53 -33 -176v-766q0 -123 32 -175t118 -138l-225 -226q-86 86 -107 109q-59 66 -94 123q-59 100 -60 295z" />
<glyph unicode=")" horiz-adv-x="733" d="M100 33q55 55 64 63q29 33 53 74q33 53 33 176v766q0 123 -32 175t-118 138l226 226q86 -86 106 -109q59 -66 94 -123q59 -100 60 -295v-790q0 -195 -60 -295q-45 -76 -200 -232z" />
<glyph unicode="*" horiz-adv-x="1036" d="M96 928l215 110l-215 111l115 199l203 -131l-11 241h230l-10 -241l202 131l115 -199l-215 -111l215 -110l-115 -199l-202 131l10 -242h-230l11 242l-203 -131z" />
<glyph unicode="+" horiz-adv-x="1138" d="M100 422v315h312v312h315v-312h311v-315h-311v-311h-315v311h-312z" />
<glyph unicode="," horiz-adv-x="589" d="M117 356h356v-458l-356 -263v721z" />
<glyph unicode="-" horiz-adv-x="872" d="M100 446v316h672v-316h-672z" />
<glyph unicode="." horiz-adv-x="630" d="M100 209q0 90 63.5 152.5t151.5 62.5q90 0 152.5 -62.5t62.5 -152.5q0 -88 -62 -151.5t-153 -63.5q-88 0 -151.5 63.5t-63.5 151.5z" />
<glyph unicode="/" horiz-adv-x="882" d="M0 -152l584 1762h311l-584 -1762h-311z" />
<glyph unicode="0" horiz-adv-x="1138" d="M100 442v338q0 215 144 340q131 115 325 115q195 0 326 -115q143 -125 143 -340v-338q0 -215 -143 -340q-131 -115 -326 -114q-195 0 -325 114q-143 125 -144 340zM436 440q0 -150 133 -149q133 -1 133 149v340q0 74 -37.5 113t-95.5 39q-57 0 -95 -39t-38 -113v-340z " />
<glyph unicode="1" horiz-adv-x="974" d="M113 594v358l311 271h336v-1223h-336v864z" />
<glyph unicode="2" horiz-adv-x="1173" d="M92 0v303l453 354q150 117 149 191q0 125 -131 125q-135 0 -135 -142h-336q0 207 141 330q131 115 330 115q203 0 332 -111q135 -117 135 -309q0 -113 -84 -219q-63 -82 -217 -199l-176 -135h498v-303h-959z" />
<glyph unicode="3" horiz-adv-x="1118" d="M61 209h336q0 -74 42 -114t108 -40q150 0 149 156q0 66 -44 110t-111 44h-47v290h47q70 0 106 45q33 37 33 93q0 66 -39 102.5t-94 36.5t-94 -37t-39 -100h-336q0 201 137 323q131 117 332 117q203 0 336 -122t133 -310t-152 -285q168 -116 168 -317q0 -217 -147 -338 q-131 -111 -338 -111q-203 0 -334 105q-152 123 -152 352z" />
<glyph unicode="4" horiz-adv-x="1267" d="M84 61v320l473 946h363l-474 -946h271v233h319v-233h150v-320h-150v-313h-319v313h-633z" />
<glyph unicode="5" horiz-adv-x="1169" d="M129 209h336q16 -154 137 -154q57 0 97 40t40 167q0 207 -137 207q-98 0 -137 -104h-309v858h888v-303h-583v-226q74 57 196 58q180 0 283 -103q135 -135 135 -387q0 -137 -26 -217q-29 -88 -109 -168q-125 -125 -338 -125q-219 0 -346 127q-111 111 -127 330z" />
<glyph unicode="6" horiz-adv-x="1150" d="M72 465q0 141 41 264q33 98 120 258l275 504h362l-338 -592q47 25 144 25q162 0 276 -113q127 -129 127 -346q0 -229 -149 -359q-139 -119 -355 -118q-215 0 -352 118q-152 129 -151 359zM408 465q0 -88 48 -137t119 -49q72 0 120 49t48 137t-48 137t-120 49t-119.5 -49 t-47.5 -137z" />
<glyph unicode="7" horiz-adv-x="1193" d="M92 690v533h1030v-303l-506 -1156h-364l506 1156h-346v-230h-320z" />
<glyph unicode="8" horiz-adv-x="1179" d="M100 436q0 180 164 314q-150 125 -149 288q0 199 143 320q135 113 332 112q197 0 332 -112q143 -121 143 -320q0 -164 -150 -288q164 -134 164 -314q0 -217 -143 -338q-133 -111 -346 -110q-213 0 -346 110q-143 121 -144 338zM436 444q0 -63 45 -108t109 -45 q63 0 108 45t45 108t-45 108.5t-108 45.5t-108.5 -45t-45.5 -109zM451 1028q0 -57 40.5 -98t98.5 -41q59 0 99 41t40 98q0 59 -40 99t-99 40q-57 0 -98 -40t-41 -99z" />
<glyph unicode="9" horiz-adv-x="1150" d="M72 758q0 229 151 358q137 119 352 119t355 -119q149 -129 149 -358q0 -141 -41 -264q-33 -98 -120 -258l-275 -504h-362l337 592q-47 -25 -143 -25q-162 0 -274 113q-129 129 -129 346zM408 758q0 -88 48 -137.5t119 -49.5q72 0 120 49.5t48 137.5t-48 137t-120 49 t-119.5 -49t-47.5 -137z" />
<glyph unicode=":" horiz-adv-x="677" d="M147 209q0 90 63.5 152.5t151.5 62.5q90 0 153 -62.5t63 -152.5q0 -88 -62.5 -151.5t-153.5 -63.5q-88 0 -151.5 63.5t-63.5 151.5zM147 721q0 90 63.5 152.5t151.5 62.5q90 0 153 -62.5t63 -152.5q0 -88 -62.5 -151.5t-153.5 -63.5q-88 0 -151.5 63.5t-63.5 151.5z" />
<glyph unicode=";" horiz-adv-x="649" d="M147 721q0 90 63.5 152.5t151.5 62.5q90 0 153 -62.5t63 -152.5q0 -88 -62.5 -151.5t-153.5 -63.5q-88 0 -151.5 63.5t-63.5 151.5zM184 356h357v-458l-357 -263v721z" />
<glyph unicode="&#x3c;" horiz-adv-x="2103" d="M279 422v420l614 -623v1340h315v-1340l615 623v-420l-772 -772z" />
<glyph unicode="=" horiz-adv-x="1138" d="M100 197v315h938v-315h-938zM100 696v316h938v-316h-938z" />
<glyph unicode="&#x3e;" horiz-adv-x="2103" d="M281 369v419l772 773l772 -773v-419l-615 622v-1341h-315v1341z" />
<glyph unicode="?" horiz-adv-x="1101" d="M123 1038q0 201 137 322q127 111 322 110q193 0 319 -108q139 -119 139 -322q0 -131 -104 -262l-141 -178q-37 -47 -37 -96v-19h-336v47q0 129 84 228l143 168q55 66 56 114q0 125 -123 125t-123 -129h-336zM395 188q0 80 57.5 137.5t137.5 57.5t137 -57.5t57 -137.5 t-57 -137t-137 -57t-137.5 57.5t-57.5 136.5z" />
<glyph unicode="@" horiz-adv-x="1605" d="M100 350v570q0 289 131 419.5t426 130.5h291q295 0 426 -131t131 -419v-928l-309 8v82q-98 -94 -231 -94q-152 0 -246 90q-66 61 -84 158q-14 68 -14 227q0 160 14 227q18 94 84 158q92 90 244 90q135 0 223 -84v53q0 129 -65.5 194.5t-194.5 65.5h-246 q-129 0 -194.5 -65.5t-65.5 -194.5v-536q0 -102 74 -176l-232 -232q-88 88 -123 166q-39 88 -39 221zM940 463q0 -197 123 -197t123 197t-123 196q-123 0 -123 -196z" />
<glyph unicode="A" horiz-adv-x="1337" d="M0 0l530 1458h277l530 -1458h-374l-68 217h-449l-71 -217h-375zM547 516h254l-123 389z" />
<glyph unicode="B" horiz-adv-x="1337" d="M147 0v1458h605q223 0 344 -114.5t121 -307.5q0 -180 -160 -288q180 -113 180 -318q0 -203 -127 -316.5t-328 -113.5h-635zM506 322h242q131 0 131 129q0 127 -131 127h-242v-256zM506 899h223q129 0 129 119t-129 119h-223v-238z" />
<glyph unicode="C" horiz-adv-x="1120" d="M100 729q0 223 17 313q29 162 131 265q163 163 402 163h3q242 0 404 -161l-238 -238q-80 80 -166 80q-92 0 -139 -61q-55 -72 -55 -361t55 -360q47 -61 139 -62q86 0 166 80l238 -237q-162 -162 -404 -162t-405 164q-102 102 -131 264q-16 90 -17 313z" />
<glyph unicode="D" horiz-adv-x="1333" d="M147 0v1458h541q250 0 393 -143q113 -113 140 -271q12 -69 12 -315t-12 -315q-27 -158 -140 -271q-143 -143 -393 -143h-541zM506 319h158q117 0 172 82q23 33 30 86q8 66 8 242q0 270 -38 328q-55 82 -172 82h-158v-820z" />
<glyph unicode="E" horiz-adv-x="1245" d="M147 0v1458h992v-319h-633v-244h541v-320h-541v-256h633v-319h-992z" />
<glyph unicode="F" horiz-adv-x="1220" d="M147 0v1458h992v-319h-633v-256h541v-320h-541v-563h-359z" />
<glyph unicode="G" horiz-adv-x="1296" d="M100 729q0 223 17 313q29 162 131 265q163 163 402 163h3q154 0 252.5 -39.5t198.5 -140.5l-244 -243q-57 57 -94 77q-47 27 -113 27q-92 0 -141 -64q-53 -70 -53 -358q0 -291 53 -360q47 -61 141 -62q92 0 146.5 56.5t54.5 160.5v17h-201v299h557v-197q0 -182 -30 -289 q-33 -117 -113 -198q-164 -168 -414 -168q-242 0 -405 164q-102 102 -131 264q-16 90 -17 313z" />
<glyph unicode="H" horiz-adv-x="1392" d="M147 0v1458h359v-561h381v561h358v-1458h-358v578h-381v-578h-359z" />
<glyph unicode="I" horiz-adv-x="653" d="M147 0v1458h359v-1458h-359z" />
<glyph unicode="J" horiz-adv-x="1056" d="M-16 147l235 234q74 -74 162 -74q190 0 190 201v950h359v-958q0 -244 -172 -385q-154 -127 -377 -127q-129 0 -219 35.5t-178 123.5z" />
<glyph unicode="K" horiz-adv-x="1378" d="M147 0v1458h355v-516l422 516h438l-498 -590l514 -868h-417l-336 598l-123 -141v-457h-355z" />
<glyph unicode="L" horiz-adv-x="1179" d="M147 0v1458h359v-1139h612v-319h-971z" />
<glyph unicode="M" horiz-adv-x="1654" d="M147 0v1458h353l327 -643l328 643h352v-1458h-358v698l-207 -360h-229l-207 360v-698h-359z" />
<glyph unicode="N" horiz-adv-x="1433" d="M147 0v1458h314l467 -733v733h358v-1458h-313l-467 733v-733h-359z" />
<glyph unicode="O" d="M100 729q0 223 17 313q29 162 131 265q163 163 404 163h3q244 0 408 -163q102 -102 131 -265q16 -90 16 -313t-16 -313q-29 -162 -131 -264q-164 -164 -408 -164t-407 164q-102 102 -131 264q-16 90 -17 313zM459 729q0 -287 51 -354.5t145 -67.5t145.5 67.5t51.5 354.5 q0 289 -53 358q-49 63 -144 64q-94 0 -143 -64q-53 -70 -53 -358z" />
<glyph unicode="P" horiz-adv-x="1284" d="M147 0v1458h578q231 0 371 -145q127 -131 127 -324t-127 -323q-139 -145 -371 -146h-219v-520h-359zM506 842h203q70 0 112.5 44t42.5 103t-43 103.5t-112 44.5h-203v-295z" />
<glyph unicode="Q" d="M100 729q0 223 17 313q29 162 131 265q163 163 404 163h3q244 0 408 -163q102 -102 131 -265q16 -90 16 -313q0 -188 -8 -264q-16 -139 -76 -234l107 -106l-182 -182l-113 112q-115 -67 -278 -67h-5q-244 0 -407 164q-102 102 -131 264q-16 90 -17 313zM459 729 q0 -287 51 -354.5t145 -67.5q18 0 29 2l-92 92l182 183l70 -70q8 98 8 215q0 289 -53 358q-49 63 -144 64q-94 0 -143 -64q-53 -70 -53 -358z" />
<glyph unicode="R" horiz-adv-x="1335" d="M147 0v1458h578q231 0 371 -145q127 -131 127 -324q0 -262 -238 -381l315 -608h-415l-258 543h-121v-543h-359zM506 842h203q70 0 112.5 44t42.5 103t-43 103.5t-112 44.5h-203v-295z" />
<glyph unicode="S" horiz-adv-x="1214" d="M10 180l230 230q102 -102 325 -103q209 0 209 131q0 106 -125 125l-176 25q-393 55 -393 422q0 203 144.5 331.5t387.5 128.5q317 0 492 -174l-225 -225q-86 86 -277 86q-86 0 -135 -43q-41 -39 -41 -92q0 -39 30.5 -69.5t98.5 -41.5l176 -24q201 -29 298 -133.5 t97 -307.5q0 -215 -165 -340q-155 -118 -394 -118h-4q-367 0 -553 192z" />
<glyph unicode="T" horiz-adv-x="1198" d="M61 1139v319h1076v-319h-359v-1139h-358v1139h-359z" />
<glyph unicode="U" horiz-adv-x="1351" d="M123 512v946h358v-938q0 -100 51.5 -156.5t141.5 -56.5t143 56.5t53 156.5v938h359v-946q0 -233 -161 -378.5t-394 -145.5t-389 143q-162 147 -162 381z" />
<glyph unicode="V" horiz-adv-x="1230" d="M0 1458h371l245 -815l242 815h373l-483 -1458h-267z" />
<glyph unicode="W" horiz-adv-x="1855" d="M0 1458h375l190 -770l236 770h254l235 -770l191 770h374l-399 -1458h-293l-235 719l-236 -719h-291z" />
<glyph unicode="X" horiz-adv-x="1298" d="M0 0l455 748l-426 710h407l213 -411l213 411h408l-426 -710l454 -748h-409l-240 449l-239 -449h-410z" />
<glyph unicode="Y" horiz-adv-x="1239" d="M0 1458h391l230 -524l227 524h391l-440 -864v-594h-359v594z" />
<glyph unicode="Z" horiz-adv-x="1112" d="M61 0v279l560 860h-535v319h965v-278l-562 -861h562v-319h-990z" />
<glyph unicode="[" horiz-adv-x="851" d="M147 -152v1762h623v-303h-287v-1155h287v-304h-623z" />
<glyph unicode="\" horiz-adv-x="882" d="M0 1573h311l572 -1725h-312z" />
<glyph unicode="]" horiz-adv-x="851" d="M82 -152v304h287v1155h-287v303h623v-1762h-623z" />
<glyph unicode="^" d="M117 768l383 707h311l383 -707h-354l-185 338l-184 -338h-354z" />
<glyph unicode="_" d="M0 -160h1311v-221h-1311v221z" />
<glyph unicode="`" horiz-adv-x="1024" d="M186 1618h344l101 -369h-203z" />
<glyph unicode="a" horiz-adv-x="1097" d="M55 346q0 135 90 221q100 98 285 99h223v28q0 137 -166 137q-102 0 -176 -73l-209 209q84 84 172 115.5t230 31.5q485 0 485 -399v-715h-327v90q-100 -100 -246 -100q-166 0 -263.5 97t-97.5 259zM377 354q0 -92 110 -92q90 0 134 41q32 31 32 111v28h-170 q-106 0 -106 -88z" />
<glyph unicode="b" horiz-adv-x="1165" d="M127 0v1458h336v-436q92 92 246 92q166 0 266 -100q72 -72 92 -211q10 -72 10 -252t-10 -252q-20 -139 -92 -211q-100 -100 -268 -100q-152 0 -254 102v-90h-326zM463 551q0 -137 22 -191q31 -69 115 -69h2q86 0 117 69q22 54 22 191t-22 190q-31 70 -117 70t-117 -70 q-22 -51 -22 -179v-11z" />
<glyph unicode="c" horiz-adv-x="972" d="M78 551q0 319 176 463q125 100 319 100q221 0 363 -141l-227 -228q-66 66 -136 66q-159 0 -159 -257q0 -263 159 -263q70 0 136 65l227 -227q-141 -141 -363 -141q-195 0 -319 100q-176 143 -176 463z" />
<glyph unicode="d" horiz-adv-x="1165" d="M88 551q0 180 10 252q20 139 92 211q100 100 267 100q154 0 245 -92v436h336v-1458h-325v90q-102 -102 -254 -102q-168 0 -269 100q-72 72 -92 211q-10 72 -10 252zM424 551q0 -137 22 -191q31 -69 115 -69h2q86 0 117 69q22 54 22 191t-22 190q-31 70 -117 70t-117 -70 q-22 -51 -22 -179v-11z" />
<glyph unicode="e" horiz-adv-x="1144" d="M78 551q0 264 139 418q133 145 354 145q231 0 369 -153q127 -143 127 -369v-150h-659q0 -72 51 -118q53 -53 143 -54q135 0 227 92l201 -200q-90 -90 -180 -129q-102 -45 -248 -45q-524 0 -524 563zM408 666h327q0 78 -44 125t-120 47q-106 0 -145 -86q-18 -41 -18 -86z " />
<glyph unicode="f" horiz-adv-x="733" d="M61 801v258h101v96q0 129 80 219q92 106 262 107h178v-283h-117q-68 0 -67 -68v-71h184v-258h-184v-801h-336v801h-101z" />
<glyph unicode="g" horiz-adv-x="1148" d="M88 592q0 178 14 250q18 104 88 174q98 98 261 98q143 0 245 -102v90h326v-1022q0 -197 -137 -323t-361 -126q-270 0 -413 144l208 209q70 -70 189 -70q178 0 178 168v80q-92 -92 -237 -92q-160 0 -259 98q-70 70 -88 174q-14 72 -14 250zM424 592q0 -106 20 -152 q29 -67 109 -67h2q82 0 113 67q18 46 18 152t-18 151q-31 68 -113 68t-111 -68q-20 -45 -20 -151z" />
<glyph unicode="h" horiz-adv-x="1173" d="M127 0v1458h336v-446q102 102 242 102q172 0 266 -117q86 -106 86 -282v-715h-336v668q0 78 -49 116q-35 27 -80 27t-80 -27q-49 -39 -49 -116v-668h-336z" />
<glyph unicode="i" horiz-adv-x="589" d="M90 1356q0 84 60.5 144.5t144.5 60.5t144.5 -60.5t60.5 -144.5t-60.5 -144.5t-144.5 -60.5t-144.5 60.5t-60.5 144.5zM127 0v1059h336v-1059h-336z" />
<glyph unicode="j" horiz-adv-x="589" d="M-57 -86h116q68 0 68 68v1077h336v-1102q0 -129 -80 -219q-92 -106 -262 -107h-178v283zM90 1356q0 84 60.5 144.5t144.5 60.5t144.5 -60.5t60.5 -144.5t-60.5 -144.5t-144.5 -60.5t-144.5 60.5t-60.5 144.5z" />
<glyph unicode="k" horiz-adv-x="1173" d="M127 0v1458h336v-741l297 385h403l-405 -457l416 -645h-416l-230 403l-65 -71v-332h-336z" />
<glyph unicode="l" horiz-adv-x="698" d="M117 326v1132h336v-1108q0 -67 65 -67h2h117v-283h-178q-170 0 -262 106q-80 90 -80 220z" />
<glyph unicode="m" horiz-adv-x="1792" d="M127 0v1102h328v-90q102 102 256 102q166 0 268 -117q133 117 311 117q170 0 264 -94q121 -121 121 -315v-705h-336v659q0 84 -51 123q-35 29 -84 29t-84 -29q-51 -39 -51 -123v-659h-336v659q0 84 -51 123q-35 29 -84 29t-84 -29q-51 -39 -51 -123v-659h-336z" />
<glyph unicode="n" horiz-adv-x="1185" d="M127 0v1102h328v-90q102 102 256 102t247 -94q111 -111 111 -315v-705h-336v659q0 84 -51 123q-35 29 -84 29t-84 -29q-51 -39 -51 -123v-659h-336z" />
<glyph unicode="o" horiz-adv-x="1126" d="M88 551q0 164 25.5 256t95.5 166q131 141 354 141t355 -141q70 -74 95 -166t25 -256t-25.5 -256t-94.5 -166q-131 -141 -355 -141q-223 0 -354 141q-70 74 -95.5 166t-25.5 256zM424 551q0 -123 14 -170q31 -90 125 -90t125 90q14 47 14 170t-14 170q-31 90 -125 90 t-125 -90q-14 -47 -14 -170z" />
<glyph unicode="p" horiz-adv-x="1165" d="M127 -356v1458h326v-90q102 102 254 102q168 0 268 -100q72 -72 92 -211q10 -72 10 -252t-10 -252q-20 -139 -92 -211q-100 -100 -266 -100q-154 0 -246 92v-436h-336zM463 551q0 -137 22 -191q31 -69 115 -69h2q86 0 117 69q22 54 22 191t-22 190q-31 70 -117 70 t-117 -70q-22 -51 -22 -179v-11z" />
<glyph unicode="q" horiz-adv-x="1165" d="M88 551q0 180 10 252q20 139 92 211q100 100 269 100q152 0 254 -102v90h325v-1458h-336v436q-92 -92 -245 -92q-166 0 -267 100q-72 72 -92 211q-10 72 -10 252zM424 551q0 -137 22 -191q31 -69 115 -69h2q86 0 117 69q22 54 22 191t-22 190q-31 70 -117 70t-117 -70 q-22 -51 -22 -179v-11z" />
<glyph unicode="r" horiz-adv-x="972" d="M127 0v1102h328v-90q102 102 260 102q156 0 258 -102l-254 -258q-57 57 -121 57q-47 0 -84 -29q-51 -41 -51 -123v-659h-336z" />
<glyph unicode="s" horiz-adv-x="1032" d="M20 147l218 218q92 -92 268 -93q143 0 143 72q0 61 -80 70l-170 16q-319 31 -319 320q0 172 137 274q123 90 301 90q299 0 434 -135l-207 -207q-66 66 -233 66q-109 0 -109 -64q0 -55 72 -61l170 -17q166 -16 252 -110q80 -87 80 -226q0 -184 -143 -284 q-127 -88 -334 -88q-158 0 -246 22q-131 35 -234 137z" />
<glyph unicode="t" horiz-adv-x="743" d="M51 801v258h101v315h335v-315h175v-258h-175v-451q0 -67 66 -67h2h107v-283h-168q-170 0 -263 106q-80 90 -79 220v475h-101z" />
<glyph unicode="u" horiz-adv-x="1185" d="M117 397v705h336v-660q0 -84 51 -123q34 -28 81 -28h3q49 0 84 28q51 39 51 123v660h336v-1102h-328v90q-102 -102 -256 -102t-248 94q-111 111 -110 315z" />
<glyph unicode="v" horiz-adv-x="1067" d="M0 1102h352l183 -572l180 572h352l-405 -1102h-256z" />
<glyph unicode="w" horiz-adv-x="1597" d="M0 1102h354l138 -572l190 572h233l191 -572l137 572h354l-331 -1102h-269l-198 604l-199 -604h-268z" />
<glyph unicode="x" horiz-adv-x="1138" d="M0 0l383 563l-369 539h404l149 -266l154 266h403l-368 -539l383 -563h-404l-168 279l-164 -279h-403z" />
<glyph unicode="y" horiz-adv-x="1052" d="M0 1102h352l187 -572l178 572h352l-457 -1233q-88 -238 -333 -238h-127v303h71q86 0 113 82l31 93z" />
<glyph unicode="z" horiz-adv-x="1001" d="M61 0v248l420 551h-395v303h834v-248l-428 -551h428v-303h-859z" />
<glyph unicode="{" horiz-adv-x="1060" d="M82 578v303h119q78 0 113.5 35.5t35.5 123.5v244q0 141 99 240q86 86 243 86h287v-303h-143q-88 0 -119 -31t-31 -129v-213q0 -166 -149 -205q150 -39 149 -205v-213q0 -135 78 -153q27 -6 72 -6h143v-304h-287q-158 0 -243 86q-98 98 -99 240v244q0 160 -149 160h-119z " />
<glyph unicode="|" horiz-adv-x="745" d="M205 -152v1762h336v-1762h-336z" />
<glyph unicode="}" horiz-adv-x="1060" d="M82 -152v304h143q88 0 119 30.5t31 128.5v213q0 166 149 205q-150 39 -149 205v213q0 135 -78 153q-27 6 -72 7h-143v303h287q158 0 243 -86q98 -98 99 -240v-244q0 -160 149 -159h119v-303h-119q-78 0 -113.5 -36t-35.5 -124v-244q0 -141 -99 -240q-86 -86 -243 -86 h-287z" />
<glyph unicode="~" horiz-adv-x="1323" d="M61 633q104 104 185 147q90 49 194 49q133 0 252 -69q88 -51 172 -51q96 0 180 84l218 -213q-197 -197 -383 -197q-133 0 -252 70q-88 51 -172 51q-96 0 -181 -84z" />
<glyph unicode="&#xa1;" horiz-adv-x="749" d="M205 -356l90 972h242l90 -972h-422zM221 913q0 80 57.5 137.5t137.5 57.5t137 -57.5t57 -137.5t-57 -137t-137 -57t-137.5 57.5t-57.5 136.5z" />
<glyph unicode="&#xa2;" horiz-adv-x="1021" d="M78 750q0 233 112 378q100 131 269 170v160h258v-160q147 -35 268 -155l-219 -219q-51 51 -90 67v-483q39 16 90 67l219 -219q-121 -121 -268 -155v-201h-258v201q-168 39 -269 170q-113 145 -112 379zM414 750q0 -187 86 -238v475q-86 -63 -86 -237z" />
<glyph unicode="&#xa3;" horiz-adv-x="1222" d="M72 569v258h123v131q0 244 172 385q154 127 376 127q129 0 219.5 -35.5t178.5 -123.5l-236 -234q-74 74 -162 74q-190 0 -190 -201v-123h190v-258h-190v-250h588v-319h-946v569h-123z" />
<glyph unicode="&#xa4;" horiz-adv-x="1380" d="M96 233l150 150q-53 111 -53 221q0 111 53 221l-150 150l223 223l150 -149q111 53 221 53q111 0 221 -53l150 149l223 -223l-149 -150q53 -111 53 -221q0 -111 -53 -221l149 -150l-223 -223l-150 150q-111 -53 -221 -54q-111 0 -221 54l-150 -150zM496 604q0 -80 57 -137 t137 -57t137.5 57t57.5 137t-57.5 137.5t-137.5 57.5t-137 -57.5t-57 -137.5z" />
<glyph unicode="&#xa5;" horiz-adv-x="1239" d="M0 1458h391l230 -524l227 524h391l-256 -504h123v-258h-256l-51 -102v-102h307v-259h-307v-233h-359v233h-307v259h307v102l-51 102h-256v258h123z" />
<glyph unicode="&#xa6;" horiz-adv-x="745" d="M205 -152v717h336v-717h-336zM205 893v717h336v-717h-336z" />
<glyph unicode="&#xa7;" horiz-adv-x="1056" d="M92 559q0 96 62 182q47 66 108 105q-135 82 -135 258q0 150 92 248q111 119 316 118q209 0 315 -112q92 -96 92 -258h-311q0 86 -96 86t-97 -72q0 -55 115 -98l111 -41q166 -61 231 -137q78 -88 78 -254q0 -174 -166 -287q145 -88 145 -277q0 -193 -137 -299 q-117 -90 -285 -90q-172 0 -284 84q-137 100 -137 299h319q0 -37 27.5 -63.5t74.5 -26.5q102 0 103 84q0 74 -121 119l-111 41q-166 61 -231 137q-78 88 -78 254zM412 571q0 -74 41 -108q31 -27 79 -27q49 0 80 27q41 34 41 108t-41 109q-31 27 -80 27t-79 -27 q-41 -35 -41 -109z" />
<glyph unicode="&#xa8;" horiz-adv-x="1024" d="M109 1393q0 68 48 115.5t115 47.5q68 0 116 -47.5t48 -115.5t-48 -116t-116 -48t-115.5 48t-47.5 116zM588 1393q0 68 48 115.5t116 47.5t115.5 -47.5t47.5 -115.5t-48 -116t-115 -48q-68 0 -116 48t-48 116z" />
<glyph unicode="&#xa9;" horiz-adv-x="1683" d="M100 729q0 307 217.5 524t524.5 217t524 -217t217 -524t-217 -524t-524 -217t-524.5 217t-217.5 524zM311 729q0 -238 150.5 -390.5t380.5 -152.5q229 0 379.5 152.5t150.5 390.5t-150.5 390.5t-379.5 152.5t-380 -152.5t-151 -390.5zM489 729q0 195 117 301 q100 92 254 92q147 0 270 -106l-137 -137q-68 55 -133 55q-160 0 -160 -205t160 -205q66 0 133 56l137 -138q-123 -106 -270 -106q-154 0 -254 92q-117 106 -117 301z" />
<glyph unicode="&#xaa;" horiz-adv-x="935" d="M88 856q0 109 72 178q80 78 227 78h178v23q0 111 -133 110q-80 0 -139 -59l-168 168q68 68 137.5 92t183.5 24q387 0 388 -319v-571h-263v71q-80 -80 -196 -80q-129 0 -208 79t-79 206zM348 864q0 -72 84 -71q76 0 104.5 28.5t28.5 87.5v25h-135q-82 0 -82 -70z" />
<glyph unicode="&#xab;" horiz-adv-x="1376" d="M61 573l560 553v-395l-162 -158l162 -159v-396zM694 573l559 553v-395l-166 -158l166 -159v-396z" />
<glyph unicode="&#xac;" horiz-adv-x="1138" d="M88 487v316h963v-623h-316v307h-647z" />
<glyph unicode="&#xad;" horiz-adv-x="872" d="M100 446v316h672v-316h-672z" />
<glyph unicode="&#xae;" horiz-adv-x="1683" d="M100 729q0 307 217.5 524t524.5 217t524 -217t217 -524t-217 -524t-524 -217t-524.5 217t-217.5 524zM311 729q0 -238 150.5 -390.5t380.5 -152.5q229 0 379.5 152.5t150.5 390.5t-150.5 390.5t-379.5 152.5t-380 -152.5t-151 -390.5zM557 342v774h346q123 0 197 -78 q68 -70 67 -172q0 -137 -125 -200l146 -324h-240l-117 289h-63v-289h-211zM768 788h106q82 0 82 78t-82 78h-106v-156z" />
<glyph unicode="&#xaf;" horiz-adv-x="1024" d="M178 1309v215h668v-215h-668z" />
<glyph unicode="&#xb0;" horiz-adv-x="995" d="M96 1094q0 166 118 283.5t284 117.5t283.5 -117.5t117.5 -283.5t-117.5 -284t-283.5 -118t-284 118t-118 284zM365 1094q0 -55 38.5 -94t94.5 -39q55 0 94 39t39 94t-39 94t-94 39t-94 -39t-39 -94z" />
<glyph unicode="&#xb1;" horiz-adv-x="1138" d="M100 0v315h938v-315h-938zM100 760v315h312v311h315v-311h311v-315h-311v-311h-315v311h-312z" />
<glyph unicode="&#xb2;" horiz-adv-x="751" d="M82 584v213l309 315q45 45 45 82q0 59 -59 59q-57 0 -58 -61h-237q0 131 90 205q80 70 205 69q129 0 211 -72.5t82 -199.5q0 -113 -121 -227l-178 -170h299v-213h-588z" />
<glyph unicode="&#xb3;" horiz-adv-x="768" d="M82 862h235q-4 -74 66 -74q66 0 66 72q0 29 -20.5 49.5t-47.5 20.5h-33v203h33q61 0 61 59q0 61 -57 61q-59 0 -57 -63h-238q-2 125 84 200.5t211 75.5q127 0 210 -75.5t83 -190.5q0 -100 -82 -164q90 -84 90 -184q0 -135 -92 -209q-82 -68 -211 -68q-125 0 -207 66 q-96 76 -94 221z" />
<glyph unicode="&#xb4;" horiz-adv-x="1024" d="M393 1249l101 369h344l-242 -369h-203z" />
<glyph unicode="&#xb5;" horiz-adv-x="1196" d="M127 -356v1458h336v-660q0 -84 51 -123q35 -29 84 -28q49 0 84 28q51 39 51 123v660h336v-1102h-328v90q-102 -102 -256 -102h-22v-344h-336z" />
<glyph unicode="&#xb6;" horiz-adv-x="1447" d="M61 1030q0 213 142 326q129 102 352 102h745v-1814h-335v1495h-185v-1495h-336v966q-143 0 -260 119q-123 127 -123 301z" />
<glyph unicode="&#xb7;" horiz-adv-x="630" d="M100 604q0 90 63.5 152.5t151.5 62.5q90 0 152.5 -62.5t62.5 -152.5q0 -88 -62 -151.5t-153 -63.5q-88 0 -151.5 63.5t-63.5 151.5z" />
<glyph unicode="&#xb8;" horiz-adv-x="1024" d="M309 -410l137 295h236l-74 -295h-299z" />
<glyph unicode="&#xb9;" horiz-adv-x="636" d="M72 1024v266l194 168h238v-874h-238v608z" />
<glyph unicode="&#xba;" horiz-adv-x="954" d="M96 1020q0 231 101.5 340.5t279.5 109.5t283 -112q98 -107 98 -338t-98 -338q-104 -113 -283 -113q-178 0 -282 113q-98 106 -99 338zM367 1020q0 -100 12 -137q23 -72 98 -72q76 0 98 72q13 37 13 137t-13 137q-23 72 -98 72q-76 0 -98 -72q-12 -37 -12 -137z" />
<glyph unicode="&#xbb;" horiz-adv-x="1376" d="M123 18v396l164 159l-164 158v395l559 -553zM756 18v396l162 159l-162 158v395l559 -553z" />
<glyph unicode="&#xbc;" horiz-adv-x="1783" d="M72 1024v266l194 168h238v-874h-238v608zM397 0l695 1458h258l-695 -1458h-258zM1059 109v225l282 540h261l-285 -540h108v76h224v-76h53v-225h-53v-109h-224v109h-366z" />
<glyph unicode="&#xbd;" horiz-adv-x="1851" d="M72 1024v266l194 168h238v-874h-238v608zM397 0l695 1458h258l-695 -1458h-258zM1182 0v213l309 315q45 45 45 82q0 59 -59 60q-57 0 -58 -62h-237q0 131 90 205q80 70 205 70q129 0 210.5 -73t81.5 -200q0 -113 -120 -227l-179 -170h299v-213h-587z" />
<glyph unicode="&#xbe;" horiz-adv-x="1824" d="M82 862h235q-4 -74 66 -74q66 0 66 72q0 29 -20.5 49.5t-47.5 20.5h-33v203h33q61 0 61 59q0 61 -57 61q-59 0 -57 -63h-238q-2 125 84 200.5t211 75.5q127 0 210 -75.5t83 -190.5q0 -100 -82 -164q90 -84 90 -184q0 -135 -92 -209q-82 -68 -211 -68q-125 0 -207 66 q-96 76 -94 221zM438 0l695 1458h258l-695 -1458h-258zM1100 109v225l282 540h260l-284 -540h108v76h224v-76h53v-225h-53v-109h-224v109h-366z" />
<glyph unicode="&#xbf;" horiz-adv-x="1101" d="M123 61q0 131 104 263l142 178q37 47 37 96v18h335v-47q0 -129 -84 -227l-143 -168q-55 -66 -55 -115q0 -125 123 -125t123 129h335q0 -201 -137 -321q-127 -111 -321 -111q-193 0 -320 109q-139 119 -139 321zM379 913q0 80 57.5 137.5t136.5 57.5q80 0 137.5 -57.5 t57.5 -137.5t-57.5 -137t-137.5 -57t-137 57.5t-57 136.5z" />
<glyph unicode="&#xc0;" horiz-adv-x="1337" d="M0 0l530 1458h277l530 -1458h-374l-68 217h-449l-71 -217h-375zM342 1970h344l101 -369h-203zM547 516h254l-123 389z" />
<glyph unicode="&#xc1;" horiz-adv-x="1337" d="M0 0l530 1458h277l530 -1458h-374l-68 217h-449l-71 -217h-375zM547 516h254l-123 389zM549 1601l101 369h344l-242 -369h-203z" />
<glyph unicode="&#xc2;" horiz-adv-x="1337" d="M0 0l530 1458h277l530 -1458h-374l-68 217h-449l-71 -217h-375zM260 1601l279 367h258l279 -367h-246l-162 170l-162 -170h-246zM547 516h254l-123 389z" />
<glyph unicode="&#xc3;" horiz-adv-x="1337" d="M0 0l530 1458h277l530 -1458h-374l-68 217h-449l-71 -217h-375zM273 1788q129 129 250 129q90 0 165 -45q59 -35 113 -35q63 0 119 55l143 -141q-129 -129 -252 -129q-90 0 -166 45q-59 35 -114 35q-63 0 -119 -56zM547 516h254l-123 389z" />
<glyph unicode="&#xc4;" horiz-adv-x="1337" d="M0 0l530 1458h277l530 -1458h-374l-68 217h-449l-71 -217h-375zM265 1745q0 68 48 115.5t115 47.5q68 0 116 -47.5t48 -115.5t-48 -116t-116 -48t-115.5 48t-47.5 116zM547 516h254l-123 389zM744 1745q0 68 48 115.5t116 47.5t115.5 -47.5t47.5 -115.5t-48 -116 t-115 -48q-68 0 -116 48t-48 116z" />
<glyph unicode="&#xc5;" horiz-adv-x="1337" d="M0 0l530 1458h277l530 -1458h-374l-68 217h-449l-71 -217h-375zM385 1829q0 117 83 200t200 83t200 -82t83 -201q0 -117 -83 -200t-200 -83t-200 83t-83 200zM547 516h254l-123 389zM562 1829q0 -43 31.5 -74.5t74.5 -31.5t74.5 31.5t31.5 74.5t-31.5 75t-74.5 32 t-74.5 -32t-31.5 -75z" />
<glyph unicode="&#xc6;" horiz-adv-x="2074" d="M0 0l758 1458h1210v-319h-633v-244h541v-320h-541v-256h633v-319h-991v305h-434l-158 -305h-385zM698 604h279v535z" />
<glyph unicode="&#xc7;" horiz-adv-x="1120" d="M100 729q0 223 17 313q29 162 131 265q164 164 405 163q242 0 404 -161l-238 -238q-80 80 -166 80q-92 0 -139 -61q-55 -72 -55 -361t55 -360q47 -61 139 -62q86 0 166 80l238 -237q-162 -162 -404 -162t-405 164q-102 102 -131 264q-16 90 -17 313zM415 -410l137 295 h236l-74 -295h-299z" />
<glyph unicode="&#xc8;" horiz-adv-x="1245" d="M147 0v1458h992v-319h-633v-244h541v-320h-541v-256h633v-319h-992zM305 1970h344l101 -369h-203z" />
<glyph unicode="&#xc9;" horiz-adv-x="1245" d="M147 0v1458h992v-319h-633v-244h541v-320h-541v-256h633v-319h-992zM512 1601l101 369h344l-242 -369h-203z" />
<glyph unicode="&#xca;" horiz-adv-x="1245" d="M147 0v1458h992v-319h-633v-244h541v-320h-541v-256h633v-319h-992zM223 1601l279 367h258l279 -367h-246l-162 170l-162 -170h-246z" />
<glyph unicode="&#xcb;" horiz-adv-x="1245" d="M147 0v1458h992v-319h-633v-244h541v-320h-541v-256h633v-319h-992zM228 1745q0 68 48 115.5t115 47.5q68 0 116 -47.5t48 -115.5t-48 -116t-116 -48t-115.5 48t-47.5 116zM707 1745q0 68 48 115.5t116 47.5t115.5 -47.5t47.5 -115.5t-48 -116t-115 -48q-68 0 -116 48 t-48 116z" />
<glyph unicode="&#xcc;" horiz-adv-x="653" d="M16 1970h344l101 -369h-203zM147 0v1458h359v-1458h-359z" />
<glyph unicode="&#xcd;" horiz-adv-x="653" d="M147 0v1458h359v-1458h-359zM209 1601l101 369h344l-242 -369h-203z" />
<glyph unicode="&#xce;" horiz-adv-x="653" d="M-93 1601l279 367h258l279 -367h-246l-162 170l-162 -170h-246zM147 0v1458h359v-1458h-359z" />
<glyph unicode="&#xcf;" horiz-adv-x="653" d="M-77 1745q0 68 48 115.5t115 47.5q68 0 116 -47.5t48 -115.5t-48 -116t-116 -48t-115.5 48t-47.5 116zM147 0v1458h359v-1458h-359zM402 1745q0 68 48 115.5t116 47.5t115.5 -47.5t47.5 -115.5t-48 -116t-115 -48q-68 0 -116 48t-48 116z" />
<glyph unicode="&#xd0;" horiz-adv-x="1390" d="M72 600v274h133v584h540q250 0 394 -143q113 -113 139 -271q12 -69 12 -315t-12 -315q-27 -158 -139 -271q-143 -143 -394 -143h-540v600h-133zM563 319h158q117 0 172 82q23 33 31 86q8 66 8 242q0 270 -39 328q-55 82 -172 82h-158v-265h185v-274h-185v-281z" />
<glyph unicode="&#xd1;" horiz-adv-x="1433" d="M147 0v1458h314l467 -733v733h358v-1458h-313l-467 733v-733h-359zM322 1788q129 129 250 129q90 0 165 -45q59 -35 113 -35q63 0 119 55l143 -141q-129 -129 -252 -129q-90 0 -166 45q-59 35 -114 35q-63 0 -119 -56z" />
<glyph unicode="&#xd2;" d="M100 729q0 223 17 313q29 162 131 265q164 164 407 163q244 0 408 -163q102 -102 131 -265q16 -90 16 -313t-16 -313q-29 -162 -131 -264q-164 -164 -408 -164t-407 164q-102 102 -131 264q-16 90 -17 313zM329 1970h344l101 -369h-203zM459 729q0 -287 51 -354.5 t145 -67.5t145.5 67.5t51.5 354.5q0 289 -53 358q-49 63 -144 64q-94 0 -143 -64q-53 -70 -53 -358z" />
<glyph unicode="&#xd3;" d="M100 729q0 223 17 313q29 162 131 265q164 164 407 163q244 0 408 -163q102 -102 131 -265q16 -90 16 -313t-16 -313q-29 -162 -131 -264q-164 -164 -408 -164t-407 164q-102 102 -131 264q-16 90 -17 313zM459 729q0 -287 51 -354.5t145 -67.5t145.5 67.5t51.5 354.5 q0 289 -53 358q-49 63 -144 64q-94 0 -143 -64q-53 -70 -53 -358zM536 1601l101 369h344l-242 -369h-203z" />
<glyph unicode="&#xd4;" d="M100 729q0 223 17 313q29 162 131 265q164 164 407 163q244 0 408 -163q102 -102 131 -265q16 -90 16 -313t-16 -313q-29 -162 -131 -264q-164 -164 -408 -164t-407 164q-102 102 -131 264q-16 90 -17 313zM247 1601l279 367h258l279 -367h-246l-162 170l-162 -170h-246z M459 729q0 -287 51 -354.5t145 -67.5t145.5 67.5t51.5 354.5q0 289 -53 358q-49 63 -144 64q-94 0 -143 -64q-53 -70 -53 -358z" />
<glyph unicode="&#xd5;" d="M100 729q0 223 17 313q29 162 131 265q164 164 407 163q244 0 408 -163q102 -102 131 -265q16 -90 16 -313t-16 -313q-29 -162 -131 -264q-164 -164 -408 -164t-407 164q-102 102 -131 264q-16 90 -17 313zM260 1788q129 129 250 129q90 0 165 -45q59 -35 113 -35 q63 0 119 55l143 -141q-129 -129 -252 -129q-90 0 -166 45q-59 35 -114 35q-63 0 -119 -56zM459 729q0 -287 51 -354.5t145 -67.5t145.5 67.5t51.5 354.5q0 289 -53 358q-49 63 -144 64q-94 0 -143 -64q-53 -70 -53 -358z" />
<glyph unicode="&#xd6;" d="M100 729q0 223 17 313q29 162 131 265q164 164 407 163q244 0 408 -163q102 -102 131 -265q16 -90 16 -313t-16 -313q-29 -162 -131 -264q-164 -164 -408 -164t-407 164q-102 102 -131 264q-16 90 -17 313zM252 1745q0 68 48 115.5t115 47.5q68 0 116 -47.5t48 -115.5 t-48 -116t-116 -48t-115.5 48t-47.5 116zM459 729q0 -287 51 -354.5t145 -67.5t145.5 67.5t51.5 354.5q0 289 -53 358q-49 63 -144 64q-94 0 -143 -64q-53 -70 -53 -358zM731 1745q0 68 48 115.5t116 47.5t115.5 -47.5t47.5 -115.5t-48 -116t-115 -48q-68 0 -116 48t-48 116 z" />
<glyph unicode="&#xd7;" horiz-adv-x="1138" d="M80 330l278 274l-278 277l213 213l274 -277l277 277l215 -213l-279 -277l279 -274l-213 -213l-277 276l-274 -276z" />
<glyph unicode="&#xd8;" d="M100 729q0 223 17 313q29 162 131 265q164 164 407 163q123 0 215 -36l56 114h241l-112 -233l8 -8q102 -102 131 -265q16 -90 16 -313t-16 -313q-29 -162 -131 -264q-164 -164 -408 -164q-123 0 -215 37l-55 -115h-242l113 233l-8 9q-102 102 -131 264q-16 90 -17 313z M459 729q0 -119 6 -190l280 591q-41 20 -90 21q-94 0 -143 -64q-53 -70 -53 -358zM565 330q39 -23 90 -23q94 0 145.5 67.5t51.5 354.5q0 121 -6 191z" />
<glyph unicode="&#xd9;" horiz-adv-x="1351" d="M123 512v946h358v-938q0 -100 51.5 -156.5t141.5 -56.5t143 56.5t53 156.5v938h359v-946q0 -233 -161 -378.5t-394 -145.5t-389 143q-162 147 -162 381zM350 1970h344l101 -369h-203z" />
<glyph unicode="&#xda;" horiz-adv-x="1351" d="M123 512v946h358v-938q0 -100 51.5 -156.5t141.5 -56.5t143 56.5t53 156.5v938h359v-946q0 -233 -161 -378.5t-394 -145.5t-389 143q-162 147 -162 381zM557 1601l101 369h344l-242 -369h-203z" />
<glyph unicode="&#xdb;" horiz-adv-x="1351" d="M123 512v946h358v-938q0 -100 51.5 -156.5t141.5 -56.5t143 56.5t53 156.5v938h359v-946q0 -233 -161 -378.5t-394 -145.5t-389 143q-162 147 -162 381zM268 1601l279 367h258l279 -367h-246l-162 170l-162 -170h-246z" />
<glyph unicode="&#xdc;" horiz-adv-x="1351" d="M123 512v946h358v-938q0 -100 51.5 -156.5t141.5 -56.5t143 56.5t53 156.5v938h359v-946q0 -233 -161 -378.5t-394 -145.5t-389 143q-162 147 -162 381zM273 1745q0 68 48 115.5t115 47.5q68 0 116 -47.5t48 -115.5t-48 -116t-116 -48t-115.5 48t-47.5 116zM752 1745 q0 68 48 115.5t116 47.5t115.5 -47.5t47.5 -115.5t-48 -116t-115 -48q-68 0 -116 48t-48 116z" />
<glyph unicode="&#xdd;" horiz-adv-x="1239" d="M0 1458h391l230 -524l227 524h391l-440 -864v-594h-359v594zM499 1601l101 369h344l-242 -369h-203z" />
<glyph unicode="&#xde;" horiz-adv-x="1284" d="M147 0v1458h359v-252h219q231 0 371 -145q127 -131 127 -324t-127 -323q-139 -145 -371 -146h-219v-268h-359zM506 590h203q70 0 112.5 44t42.5 103t-43 103.5t-112 44.5h-203v-295z" />
<glyph unicode="&#xdf;" horiz-adv-x="1196" d="M127 0v1063q0 408 491 407q219 0 343 -90q133 -94 133 -280q0 -152 -125 -223q125 -61 125 -211v-312q0 -354 -369 -354h-107v283h39q98 0 99 98v264q0 98 -99 98h-39v258h48q90 0 90 86q0 90 -138 91q-86 0 -119.5 -35t-33.5 -109v-1034h-338z" />
<glyph unicode="&#xe0;" horiz-adv-x="1097" d="M55 346q0 135 90 221q100 98 285 99h223v28q0 137 -166 137q-102 0 -176 -73l-209 209q84 84 172 115.5t230 31.5q485 0 485 -399v-715h-327v90q-100 -100 -246 -100q-166 0 -263.5 97t-97.5 259zM219 1618h344l101 -369h-203zM377 354q0 -92 110 -92q90 0 134 41 q32 31 32 111v28h-170q-106 0 -106 -88z" />
<glyph unicode="&#xe1;" horiz-adv-x="1097" d="M55 346q0 135 90 221q100 98 285 99h223v28q0 137 -166 137q-102 0 -176 -73l-209 209q84 84 172 115.5t230 31.5q485 0 485 -399v-715h-327v90q-100 -100 -246 -100q-166 0 -263.5 97t-97.5 259zM377 354q0 -92 110 -92q90 0 134 41q32 31 32 111v28h-170 q-106 0 -106 -88zM426 1249l101 369h344l-242 -369h-203z" />
<glyph unicode="&#xe2;" horiz-adv-x="1097" d="M55 346q0 135 90 221q100 98 285 99h223v28q0 137 -166 137q-102 0 -176 -73l-209 209q84 84 172 115.5t230 31.5q485 0 485 -399v-715h-327v90q-100 -100 -246 -100q-166 0 -263.5 97t-97.5 259zM137 1249l279 367h258l279 -367h-246l-162 170l-162 -170h-246zM377 354 q0 -92 110 -92q90 0 134 41q32 31 32 111v28h-170q-106 0 -106 -88z" />
<glyph unicode="&#xe3;" horiz-adv-x="1097" d="M55 346q0 135 90 221q100 98 285 99h223v28q0 137 -166 137q-102 0 -176 -73l-209 209q84 84 172 115.5t230 31.5q485 0 485 -399v-715h-327v90q-100 -100 -246 -100q-166 0 -263.5 97t-97.5 259zM150 1436q129 129 250 129q90 0 165 -45q59 -35 113 -35q63 0 119 55 l143 -141q-129 -129 -252 -129q-90 0 -166 45q-59 35 -114 35q-63 0 -119 -56zM377 354q0 -92 110 -92q90 0 134 41q32 31 32 111v28h-170q-106 0 -106 -88z" />
<glyph unicode="&#xe4;" horiz-adv-x="1097" d="M55 346q0 135 90 221q100 98 285 99h223v28q0 137 -166 137q-102 0 -176 -73l-209 209q84 84 172 115.5t230 31.5q485 0 485 -399v-715h-327v90q-100 -100 -246 -100q-166 0 -263.5 97t-97.5 259zM142 1393q0 68 48 115.5t115 47.5q68 0 116 -47.5t48 -115.5t-48 -116 t-116 -48t-115.5 48t-47.5 116zM377 354q0 -92 110 -92q90 0 134 41q32 31 32 111v28h-170q-106 0 -106 -88zM621 1393q0 68 48 115.5t116 47.5t115.5 -47.5t47.5 -115.5t-48 -116t-115 -48q-68 0 -116 48t-48 116z" />
<glyph unicode="&#xe5;" horiz-adv-x="1097" d="M55 346q0 135 90 221q100 98 285 99h223v28q0 137 -166 137q-102 0 -176 -73l-209 209q84 84 172 115.5t230 31.5q485 0 485 -399v-715h-327v90q-100 -100 -246 -100q-166 0 -263.5 97t-97.5 259zM262 1497q0 117 83 200t200 83t200 -82t83 -201q0 -117 -83 -200 t-200 -83t-200 83t-83 200zM377 354q0 -92 110 -92q90 0 134 41q32 31 32 111v28h-170q-106 0 -106 -88zM439 1497q0 -43 31.5 -74.5t74.5 -31.5t74.5 31.5t31.5 74.5t-31.5 75t-74.5 32t-74.5 -32t-31.5 -75z" />
<glyph unicode="&#xe6;" horiz-adv-x="1720" d="M55 346q0 135 90 221q100 98 285 99h223v28q0 137 -166 137q-102 0 -176 -73l-209 209q84 84 172 115.5t230 31.5q229 0 348 -92q121 92 295 92q231 0 369 -153q127 -143 126 -369v-150h-659q0 -72 51 -118q53 -53 144 -54q135 0 227 92l201 -200q-90 -90 -181 -129 q-102 -45 -247 -45q-252 0 -385 133q-92 -84 -189 -113q-68 -20 -188 -20q-164 0 -262.5 98t-98.5 260zM377 354q0 -92 110 -92q90 0 134 41q32 31 32 111v28h-170q-106 0 -106 -88zM983 666h328q0 78 -44 125t-120 47q-106 0 -146 -86q-18 -41 -18 -86z" />
<glyph unicode="&#xe7;" horiz-adv-x="972" d="M78 551q0 319 176 463q125 100 319 100q221 0 363 -141l-227 -228q-66 66 -136 66q-160 0 -159 -260q0 -260 159 -260q70 0 136 65l227 -227q-141 -141 -363 -141q-195 0 -319 100q-176 143 -176 463zM309 -410l137 295h236l-74 -295h-299z" />
<glyph unicode="&#xe8;" horiz-adv-x="1144" d="M78 551q0 264 139 418q133 145 354 145q231 0 369 -153q127 -143 127 -369v-150h-659q0 -72 51 -118q53 -53 143 -54q135 0 227 92l201 -200q-90 -90 -180 -129q-102 -45 -248 -45q-524 0 -524 563zM254 1618h344l101 -369h-203zM408 666h327q0 78 -44 125t-120 47 q-106 0 -145 -86q-18 -41 -18 -86z" />
<glyph unicode="&#xe9;" horiz-adv-x="1144" d="M78 551q0 264 139 418q133 145 354 145q231 0 369 -153q127 -143 127 -369v-150h-659q0 -72 51 -118q53 -53 143 -54q135 0 227 92l201 -200q-90 -90 -180 -129q-102 -45 -248 -45q-524 0 -524 563zM408 666h327q0 78 -44 125t-120 47q-106 0 -145 -86q-18 -41 -18 -86z M461 1249l101 369h344l-242 -369h-203z" />
<glyph unicode="&#xea;" horiz-adv-x="1144" d="M78 551q0 264 139 418q133 145 354 145q231 0 369 -153q127 -143 127 -369v-150h-659q0 -72 51 -118q53 -53 143 -54q135 0 227 92l201 -200q-90 -90 -180 -129q-102 -45 -248 -45q-524 0 -524 563zM172 1249l279 367h258l279 -367h-246l-162 170l-162 -170h-246z M408 666h327q0 78 -44 125t-120 47q-106 0 -145 -86q-18 -41 -18 -86z" />
<glyph unicode="&#xeb;" horiz-adv-x="1144" d="M78 551q0 264 139 418q133 145 354 145q231 0 369 -153q127 -143 127 -369v-150h-659q0 -72 51 -118q53 -53 143 -54q135 0 227 92l201 -200q-90 -90 -180 -129q-102 -45 -248 -45q-524 0 -524 563zM177 1393q0 68 48 115.5t115 47.5q68 0 116 -47.5t48 -115.5t-48 -116 t-116 -48t-115.5 48t-47.5 116zM408 666h327q0 78 -44 125t-120 47q-106 0 -145 -86q-18 -41 -18 -86zM656 1393q0 68 48 115.5t116 47.5t115.5 -47.5t47.5 -115.5t-48 -116t-115 -48q-68 0 -116 48t-48 116z" />
<glyph unicode="&#xec;" horiz-adv-x="589" d="M8 1618h344l101 -369h-203zM127 0v1102h336v-1102h-336z" />
<glyph unicode="&#xed;" horiz-adv-x="589" d="M127 0v1102h336v-1102h-336zM139 1249l101 369h344l-242 -369h-203z" />
<glyph unicode="&#xee;" horiz-adv-x="589" d="M-113 1249l279 367h258l279 -367h-246l-162 170l-162 -170h-246zM127 0v1102h336v-1102h-336z" />
<glyph unicode="&#xef;" horiz-adv-x="589" d="M-104 1393q0 68 48 115.5t115 47.5q68 0 116 -47.5t48 -115.5t-48 -116t-116 -48t-115.5 48t-47.5 116zM127 0v1102h336v-1102h-336zM375 1393q0 68 48 115.5t116 47.5t115.5 -47.5t47.5 -115.5t-48 -116t-115 -48q-68 0 -116 48t-48 116z" />
<glyph unicode="&#xf0;" horiz-adv-x="1126" d="M104 530q0 158 25 247t92 161q119 127 299 133l-41 82h-231v233h117l-46 95h361l45 -95h199v-233h-84l53 -117q76 -166 98 -248q31 -108 31 -258q0 -147 -21 -227q-29 -117 -112 -197q-125 -119 -326 -118q-215 0 -342 135q-68 72 -92.5 161t-24.5 246zM440 530 q0 -115 13 -155q27 -84 110 -84q84 0 111 84q12 40 12 155t-12 156q-27 84 -111 84t-110 -84q-12 -41 -13 -156z" />
<glyph unicode="&#xf1;" horiz-adv-x="1185" d="M127 0v1102h328v-90q102 102 256 102t247 -94q111 -111 111 -315v-705h-336v659q0 84 -51 123q-35 29 -84 29t-84 -29q-51 -39 -51 -123v-659h-336zM203 1436q129 129 250 129q90 0 165 -45q59 -35 113 -35q63 0 119 55l143 -141q-129 -129 -252 -129q-90 0 -166 45 q-59 35 -114 35q-63 0 -119 -56z" />
<glyph unicode="&#xf2;" horiz-adv-x="1126" d="M88 551q0 164 25.5 256t95.5 166q131 141 354 141t355 -141q70 -74 95 -166t25 -256t-25.5 -256t-94.5 -166q-131 -141 -355 -141q-223 0 -354 141q-70 74 -95.5 166t-25.5 256zM237 1618h344l101 -369h-203zM424 551q0 -123 14 -170q31 -90 125 -90t125 90q14 47 14 170 t-14 170q-31 90 -125 90t-125 -90q-14 -47 -14 -170z" />
<glyph unicode="&#xf3;" horiz-adv-x="1126" d="M88 551q0 164 25.5 256t95.5 166q131 141 354 141t355 -141q70 -74 95 -166t25 -256t-25.5 -256t-94.5 -166q-131 -141 -355 -141q-223 0 -354 141q-70 74 -95.5 166t-25.5 256zM424 551q0 -123 14 -170q31 -90 125 -90t125 90q14 47 14 170t-14 170q-31 90 -125 90 t-125 -90q-14 -47 -14 -170zM444 1249l101 369h344l-242 -369h-203z" />
<glyph unicode="&#xf4;" horiz-adv-x="1126" d="M88 551q0 164 25.5 256t95.5 166q131 141 354 141t355 -141q70 -74 95 -166t25 -256t-25.5 -256t-94.5 -166q-131 -141 -355 -141q-223 0 -354 141q-70 74 -95.5 166t-25.5 256zM155 1249l279 367h258l279 -367h-246l-162 170l-162 -170h-246zM424 551q0 -123 14 -170 q31 -90 125 -90t125 90q14 47 14 170t-14 170q-31 90 -125 90t-125 -90q-14 -47 -14 -170z" />
<glyph unicode="&#xf5;" horiz-adv-x="1126" d="M88 551q0 164 25.5 256t95.5 166q131 141 354 141t355 -141q70 -74 95 -166t25 -256t-25.5 -256t-94.5 -166q-131 -141 -355 -141q-223 0 -354 141q-70 74 -95.5 166t-25.5 256zM168 1436q129 129 250 129q90 0 165 -45q59 -35 113 -35q63 0 119 55l143 -141 q-129 -129 -252 -129q-90 0 -166 45q-59 35 -114 35q-63 0 -119 -56zM424 551q0 -123 14 -170q31 -90 125 -90t125 90q14 47 14 170t-14 170q-31 90 -125 90t-125 -90q-14 -47 -14 -170z" />
<glyph unicode="&#xf6;" horiz-adv-x="1126" d="M88 551q0 164 25.5 256t95.5 166q131 141 354 141t355 -141q70 -74 95 -166t25 -256t-25.5 -256t-94.5 -166q-131 -141 -355 -141q-223 0 -354 141q-70 74 -95.5 166t-25.5 256zM160 1393q0 68 48 115.5t115 47.5q68 0 116 -47.5t48 -115.5t-48 -116t-116 -48t-115.5 48 t-47.5 116zM424 551q0 -123 14 -170q31 -90 125 -90t125 90q14 47 14 170t-14 170q-31 90 -125 90t-125 -90q-14 -47 -14 -170zM639 1393q0 68 48 115.5t116 47.5t115.5 -47.5t47.5 -115.5t-48 -116t-115 -48q-68 0 -116 48t-48 116z" />
<glyph unicode="&#xf7;" horiz-adv-x="1138" d="M88 446v316h963v-316h-963zM354 147q0 90 63.5 152.5t151.5 62.5q90 0 152.5 -62.5t62.5 -152.5q0 -88 -62.5 -151.5t-152.5 -63.5q-88 0 -151.5 63.5t-63.5 151.5zM354 1061q0 90 63.5 152.5t151.5 62.5q90 0 152.5 -62.5t62.5 -152.5q0 -88 -62.5 -151.5t-152.5 -63.5 q-88 0 -151.5 63.5t-63.5 151.5z" />
<glyph unicode="&#xf8;" horiz-adv-x="1126" d="M88 551q0 164 25.5 256t95.5 166q131 141 354 141q117 0 213 -41l70 119h190l-125 -213q80 -86 109 -199q18 -79 18 -229q0 -164 -25.5 -256t-94.5 -166q-131 -141 -355 -141q-117 0 -213 41l-69 -119h-191l125 213q-82 86 -109 199q-18 76 -18 229zM424 551 q0 -74 4 -102l205 348q-27 14 -70 14q-94 0 -125 -90q-14 -47 -14 -170zM494 305q27 -14 69 -14q94 0 125 90q14 47 14 170q0 74 -4 102z" />
<glyph unicode="&#xf9;" horiz-adv-x="1185" d="M117 397v705h336v-660q0 -84 51 -123q35 -29 84 -28q49 0 84 28q51 39 51 123v660h336v-1102h-328v90q-102 -102 -256 -102t-248 94q-111 111 -110 315zM262 1618h344l101 -369h-203z" />
<glyph unicode="&#xfa;" horiz-adv-x="1185" d="M117 397v705h336v-660q0 -84 51 -123q35 -29 84 -28q49 0 84 28q51 39 51 123v660h336v-1102h-328v90q-102 -102 -256 -102t-248 94q-111 111 -110 315zM469 1249l101 369h344l-242 -369h-203z" />
<glyph unicode="&#xfb;" horiz-adv-x="1185" d="M117 397v705h336v-660q0 -84 51 -123q35 -29 84 -28q49 0 84 28q51 39 51 123v660h336v-1102h-328v90q-102 -102 -256 -102t-248 94q-111 111 -110 315zM180 1249l279 367h258l279 -367h-246l-162 170l-162 -170h-246z" />
<glyph unicode="&#xfc;" horiz-adv-x="1185" d="M117 397v705h336v-660q0 -84 51 -123q35 -29 84 -28q49 0 84 28q51 39 51 123v660h336v-1102h-328v90q-102 -102 -256 -102t-248 94q-111 111 -110 315zM185 1393q0 68 48 115.5t115 47.5q68 0 116 -47.5t48 -115.5t-48 -116t-116 -48t-115.5 48t-47.5 116zM664 1393 q0 68 48 115.5t116 47.5t115.5 -47.5t47.5 -115.5t-48 -116t-115 -48q-68 0 -116 48t-48 116z" />
<glyph unicode="&#xfd;" horiz-adv-x="1052" d="M0 1102h352l187 -572l178 572h352l-457 -1233q-88 -238 -333 -238h-127v303h71q86 0 113 82l31 93zM407 1249l101 369h344l-242 -369h-203z" />
<glyph unicode="&#xfe;" horiz-adv-x="1169" d="M127 -356v1814h336v-436q92 92 246 92q166 0 266 -100q72 -72 92 -211q10 -72 10 -252t-10 -252q-20 -139 -92 -211q-100 -100 -266 -100q-154 0 -246 92v-436h-336zM463 551q0 -137 22 -191q31 -70 117 -69q86 0 117 69q22 54 22 191t-22 190q-31 70 -117 70t-117 -70 q-23 -53 -22 -190z" />
<glyph unicode="&#xff;" horiz-adv-x="1052" d="M0 1102h352l187 -572l178 572h352l-457 -1233q-88 -238 -333 -238h-127v303h71q86 0 113 82l31 93zM123 1393q0 68 48 115.5t115 47.5q68 0 116 -47.5t48 -115.5t-48 -116t-116 -48t-115.5 48t-47.5 116zM602 1393q0 68 48 115.5t116 47.5t115.5 -47.5t47.5 -115.5 t-48 -116t-115 -48q-68 0 -116 48t-48 116z" />
<glyph unicode="&#x152;" horiz-adv-x="1949" d="M100 729q0 221 19 320q29 166 129 266q156 156 397 155q137 0 207 -65v53h991v-319h-633v-244h541v-320h-541v-256h633v-319h-991v53q-70 -66 -209 -65q-240 0 -395 155q-100 100 -129 267q-18 98 -19 319zM459 729q0 -287 51 -354.5t145 -67.5t145.5 67.5t51.5 354.5 q0 289 -53 358q-49 63 -144 64q-94 0 -143 -64q-53 -70 -53 -358z" />
<glyph unicode="&#x153;" horiz-adv-x="1769" d="M88 551q0 164 25.5 256t95.5 166q131 141 354 141q193 0 320 -108q125 109 313 108q231 0 369 -153q127 -143 127 -369v-150h-660q0 -72 51 -118q53 -53 144 -54q135 0 227 92l201 -200q-90 -90 -180 -129q-102 -45 -248 -45q-223 0 -350 102q-125 -102 -314 -102 q-223 0 -354 141q-70 74 -95.5 166t-25.5 256zM424 551q0 -123 14 -170q31 -90 125 -90t125 90q14 47 14 170t-14 170q-31 90 -125 90t-125 -90q-14 -47 -14 -170zM1032 666h328q0 78 -44 125t-120 47q-106 0 -145 -86q-18 -41 -19 -86z" />
<glyph unicode="&#x178;" horiz-adv-x="1239" d="M0 1458h391l230 -524l227 524h391l-440 -864v-594h-359v594zM215 1745q0 68 48 115.5t115 47.5q68 0 116 -47.5t48 -115.5t-48 -116t-116 -48t-115.5 48t-47.5 116zM694 1745q0 68 48 115.5t116 47.5t115.5 -47.5t47.5 -115.5t-48 -116t-115 -48q-68 0 -116 48t-48 116z " />
<glyph unicode="&#x2c6;" horiz-adv-x="1024" d="M104 1249l279 367h258l279 -367h-246l-162 170l-162 -170h-246z" />
<glyph unicode="&#x2dc;" horiz-adv-x="1024" d="M117 1436q129 129 250 129q90 0 165 -45q59 -35 113 -35q63 0 119 55l143 -141q-129 -129 -252 -129q-90 0 -166 45q-59 35 -114 35q-63 0 -119 -56z" />
<glyph unicode="&#x2000;" horiz-adv-x="1056" />
<glyph unicode="&#x2001;" horiz-adv-x="2112" />
<glyph unicode="&#x2002;" horiz-adv-x="1056" />
<glyph unicode="&#x2003;" horiz-adv-x="2112" />
<glyph unicode="&#x2004;" horiz-adv-x="704" />
<glyph unicode="&#x2005;" horiz-adv-x="528" />
<glyph unicode="&#x2006;" horiz-adv-x="352" />
<glyph unicode="&#x2007;" horiz-adv-x="352" />
<glyph unicode="&#x2008;" horiz-adv-x="264" />
<glyph unicode="&#x2009;" horiz-adv-x="422" />
<glyph unicode="&#x200a;" horiz-adv-x="117" />
<glyph unicode="&#x2010;" horiz-adv-x="872" d="M100 446v316h672v-316h-672z" />
<glyph unicode="&#x2011;" horiz-adv-x="872" d="M100 446v316h672v-316h-672z" />
<glyph unicode="&#x2012;" horiz-adv-x="872" d="M100 446v316h672v-316h-672z" />
<glyph unicode="&#x2013;" horiz-adv-x="1138" d="M100 446v316h938v-316h-938z" />
<glyph unicode="&#x2014;" horiz-adv-x="2238" d="M100 451v323h2038v-323h-2038z" />
<glyph unicode="&#x2018;" horiz-adv-x="569" d="M117 1159v299l336 246v-545h-336z" />
<glyph unicode="&#x2019;" horiz-adv-x="569" d="M117 915v543h336v-301z" />
<glyph unicode="&#x201a;" horiz-adv-x="565" d="M117 -242v543h336v-301z" />
<glyph unicode="&#x201c;" horiz-adv-x="1046" d="M117 1159v299l334 246v-545h-334zM594 1159v299l336 246v-545h-336z" />
<glyph unicode="&#x201d;" horiz-adv-x="1046" d="M117 915v543h334v-301zM594 915v543h336v-301z" />
<glyph unicode="&#x201e;" horiz-adv-x="1052" d="M117 -242v543h334v-301zM594 -242v543h336v-301z" />
<glyph unicode="&#x2022;" horiz-adv-x="962" d="M147 684q0 139 98.5 236.5t235.5 97.5q139 0 236.5 -97.5t97.5 -236.5q0 -137 -97 -235.5t-237 -98.5q-137 0 -235.5 98.5t-98.5 235.5z" />
<glyph unicode="&#x2026;" horiz-adv-x="1841" d="M100 209q0 90 63.5 152.5t151.5 62.5q90 0 152.5 -62.5t62.5 -152.5q0 -88 -62 -151.5t-153 -63.5q-88 0 -151.5 63.5t-63.5 151.5zM705 209q0 88 63 151.5t152 63.5q88 0 151.5 -62.5t63.5 -152.5q0 -88 -62.5 -151.5t-150.5 -63.5q-90 0 -153.5 63.5t-63.5 151.5z M1311 209q0 90 63.5 152.5t151.5 62.5q90 0 152.5 -62.5t62.5 -152.5q0 -88 -62.5 -151.5t-152.5 -63.5q-88 0 -151.5 63.5t-63.5 151.5z" />
<glyph unicode="&#x202f;" horiz-adv-x="422" />
<glyph unicode="&#x2039;" horiz-adv-x="743" d="M61 573l560 553v-395l-162 -158l162 -159v-396z" />
<glyph unicode="&#x203a;" horiz-adv-x="743" d="M123 18v396l164 159l-164 158v395l559 -553z" />
<glyph unicode="&#x205f;" horiz-adv-x="528" />
<glyph unicode="&#x2122;" horiz-adv-x="1992" d="M104 1245v213h668v-213h-215v-661h-238v661h-215zM897 584v874h240l239 -430l240 430h239v-874h-239v448l-137 -268h-205l-137 268v-448h-240z" />
<glyph unicode="&#x25fc;" horiz-adv-x="1105" d="M0 0v1106h1106v-1106h-1106z" />
</font>
</defs>
</svg>
